Loading...
Error
Фрилич! «КАЧАЙ И РАЗДАВАЙ». Скачанное не засчитывается!
Регистрация
Имя:     Пароль:  
Забыли пароль?

Космическая станция в 3Д / Space Station 3D [IMAX] [2002, Документальный, Космос] Half OverUnder

Список форумов ivbox.me » 3D видео » Документальные фильмы (3D) » Космическая станция в 3Д / Space Station 3D [IMAX] [2002, Документальный, Космос] Half OverUnder
Ответить на тему Вниз
Статистика раздачи
Нет
 
     
Сделать раздачу рекомендованной:  Подтвердите 
 
Автор Сообщение

Trust

Сид-бонус: 7489063

Стаж: 11 лет

Сообщений: 4674

Откуда: Киров

Награды: Нет

Рейтинг: 37,73
Скачано:  3,765 ТБ
Отдано:  100,509 ТБ
на своих 32,394 ТБ
бонус:  9,15 ТБ
Доступно 469,744 ТБ

post 05-Апр-2013 00:33 (5 лет 3 месяца назад)

Quote

Космическая станция / Space Station

Год выпуска: 2002
Страна: США, Канада (IMAX, Lockheed Martin, NASA)
Жанр: Документальный, Космос
Продолжительность: 00:47:05
Перевод: Одноголосый закадровый (А.Дасевич)
Русские субтитры: есть
Режиссер: Тони Майерс / Toni Myers
Рассказчики: А. Дасевич / Том Круз
В фильме показаны: James Arnold, Michael J. Bloomfield, Robert D. Cabana, Leroy Chiao, Kenneth D. Cockrell, Robert L. Curbeam Jr., Brian Duffy, Marc Garneau, Michael L. Gernhardt, Юрий Гидзенко, Umberto Guidoni, Chris Hadfield, Susan Helms, Charles Owen Hobaugh, Marsha Ivins, Brent W. Jett Jr., Thomas D. Jones, Janet Lynn Kavandi, James M. Kelly, Сергей Крикалёв, Steven W. Lindsey, Юрий Лончаков, Michael E. López-Alegría, William Surles McArthur Jr., Pamela Ann Melroy, James H. Newman, Scott E. Parazynski, John L. Phillips, Mark L. Polnaksy, James F. Reilly II, Paul William Richards, Kent V. Rominger, Jerry L. Ross, William M. Shepherd, Joseph R. Tanner, Andrew S.W. Thomas, Юрий Усачев, James S. Voss, Koichi Wakata, James D. Wetherbee, Peter J.K. Wisoff.
Описание: Первый 3D-фильм, снятый в открытом кос­мосе. Зрители путешествуют на околоземной орбите по Международной космической стан­ции — масштабному космическому проекту 21-го века. 16 стран, включая Россию, приняли участие в создании этой космической лаборатории. Нам представляется уникальный шанс выйти в открытый космос, не покидая уютного кресла дома.
Качество: BDrip
Контейнер: MKV
Формат 3D: Half OverUnder / Вертикальная анаморфная стереопара
Порядок ракурсов: левый ракурс первый
Видео кодек: x264
Аудио кодек: AC3
Видео: AVC / 23,976 fps / 1920х1080p / 7678 Kbps
Аудио#1: Русский / AC3 / 48 KHz / 5.1 ch / 640 Kbps (AVO - А.Дасевич)
Аудио#2: Английский / AC3 / 48 KHz / 5.1 ch / 640 Kbps
Субтитры: Вшитые softsub srt - Русские лицензия, Русские hughjass, Какие-то типа голландских
General
UniqueID : 240651273715152572793704927652507615011 (0xB50BBFDA02263BB2A0E7D005D254FF23)
Complete name : F:\Downloads\SpaceStation(3D)2002.halfOU(ash61).mkv
Format : Matroska
File size : 3.01 GiB
Duration : 47mn 11s
Overall bit rate : 9 140 Kbps
Movie name : Space Station (3D) 2002 (Ash61)
Encoded date : UTC 2012-04-15 20:10:16
Writing application : mkvmerge v3.4.0 ('Rapunzel') сборка от May 15 2010 09:38:20
Writing library : libebml v0.8.0 + libmatroska v0.9.0
Video
ID : 1
Format : AVC
Format/Info : Advanced Video Codec
Format profile : High@L4.1
Format settings, CABAC : Yes
Format settings, ReFrames : 4 frames
Codec ID : V_MPEG4/ISO/AVC
Duration : 47mn 11s
Bit rate : 7 678 Kbps
Width : 1 920 pixels
Height : 1 080 pixels
Display aspect ratio : 16:9
Frame rate : 23.976 fps
Color space : YUV
Chroma subsampling : 4:2:0
Bit depth : 8 bits
Scan type : Progressive
Bits/(Pixel*Frame) : 0.154
Stream size : 2.53 GiB (84%)
Title : BDrip by ash61
Writing library : x264 core 116 r2074 2641b9e
Encoding settings : cabac=1 / ref=4 / deblock=1:-3:-3 / analyse=0x3:0x133 / me=umh / subme=9 / psy=1 / psy_rd=1.00:0.15 / mixed_ref=1 / me_range=16 / chroma_me=1 / trellis=2 / 8x8dct=1 / cqm=0 / deadzone=21,11 / fast_pskip=1 / chroma_qp_offset=-3 / threads=3 / sliced_threads=0 / nr=0 / decimate=1 / interlaced=0 / bluray_compat=0 / constrained_intra=0 / bframes=6 / b_pyramid=2 / b_adapt=2 / b_bias=0 / direct=3 / weightb=1 / open_gop=0 / weightp=2 / keyint=250 / keyint_min=23 / scenecut=40 / intra_refresh=0 / rc_lookahead=60 / rc=crf / mbtree=1 / crf=18.0 / qcomp=0.70 / qpmin=0 / qpmax=69 / qpstep=4 / vbv_maxrate=40000 / vbv_bufsize=40000 / crf_max=0.0 / nal_hrd=none / ip_ratio=1.40 / aq=1:0.70
Audio #1
ID : 2
Format : AC-3
Format/Info : Audio Coding 3
Mode extension : CM (complete main)
Codec ID : A_AC3
Duration : 47mn 11s
Bit rate mode : Constant
Bit rate : 640 Kbps
Channel(s) : 6 channels
Channel positions : Front: L C R, Side: L R, LFE
Sampling rate : 48.0 KHz
Bit depth : 16 bits
Compression mode : Lossy
Stream size : 216 MiB (7%)
Title : AVO - А.Дасевич
Language : Russian
Audio #2
ID : 3
Format : AC-3
Format/Info : Audio Coding 3
Mode extension : CM (complete main)
Codec ID : A_AC3
Duration : 47mn 11s
Bit rate mode : Constant
Bit rate : 640 Kbps
Channel(s) : 6 channels
Channel positions : Front: L C R, Side: L R, LFE
Sampling rate : 48.0 KHz
Bit depth : 16 bits
Compression mode : Lossy
Stream size : 216 MiB (7%)
Language : English
Text #1
ID : 4
Format : UTF-8
Codec ID : S_TEXT/UTF8
Codec ID/Info : UTF-8 Plain Text
Title : Перевод с лицензии
Language : Russian
Text #2
ID : 5
Format : UTF-8
Codec ID : S_TEXT/UTF8
Codec ID/Info : UTF-8 Plain Text
Title : Перевод hughjass
Language : Russian
Text #3
ID : 6
Format : UTF-8
Codec ID : S_TEXT/UTF8
Codec ID/Info : UTF-8 Plain Text
Language : English
Menu
00:00:00.000 : :1
00:10:28.419 : :2
00:22:17.294 : :3
00:29:13.377 : :4
00:40:14.704 : :5
00:45:24.013 : :6


Вне форума Profile PM
Вверх
Показать сообщения:    
Ответить на тему Вверх
Список форумов ivbox.me » 3D видео » Документальные фильмы (3D) » Космическая станция в 3Д / Space Station 3D [IMAX] [2002, Документальный, Космос] Half OverUnder

Текущее время: 15-Июл 23:58

Часовой пояс: GMT + 3


Вы не можете начинать темы
Вы не можете отвечать на сообщения
Вы не можете редактировать свои сообщения
Вы не можете удалять свои сообщения
Вы не можете голосовать в опросах
Вы не можете прикреплять файлы к сообщениям
Вы не можете скачивать файлы