Loading...
Error
Фрилич! «КАЧАЙ И РАЗДАВАЙ». Скачанное не засчитывается!
Регистрация
Имя:     Пароль:  
Забыли пароль?

[BBC] Мир с высоты птичьего полета / Earthflight [2011-2012 , Документальный] BDRip 1080p

Список форумов ivbox.me » Документальные фильмы » BBC, Discovery, National Geographic » [BBC] Мир с высоты птичьего полета / Earthflight [2011-2012 , Документальный] BDRip 1080p
Ответить на тему Вниз
Статистика раздачи
Нет
 
     
Сделать раздачу рекомендованной:  Подтвердите 
 
Автор Сообщение

Trust

Сид-бонус: 3936901

Стаж: 12 лет

Сообщений: 4765

Откуда: Киров

Награды: Нет

Рейтинг: 37,74
Скачано:  3,765 ТБ
Отдано:  100,535 ТБ
на своих 32,412 ТБ
бонус:  9,153 ТБ
Доступно 469,899 ТБ

post 07-Окт-2013 12:45 (6 лет назад)

Quote

Мир с высоты птичьего полета / Earthflight

Год выпуска: 2011-2012
Страна: Великобритания
Жанр: Документальный
Продолжительность: 6х00:59:15
Перевод: Профессиональный,закадровый (одноголосый)
Русские субтитры: нет
Режиссер: John Downer / Джон Даунер
Описание:
Захватывающий естественно-исторический сериал BBC One представляет глазами птиц некоторые из величайших явлений дикой природы и её чудеса. Удивительные достопримечательности шести континентов проявляются в совершенно новом свете, в виде шестисерийного фильма, охватывающего путешествия снежного гуся, журавлей, фламинго, пеликанов, орлов и других птиц. На основе использования передовой техники съемки, показывающей все в мельчайших деталях, зрители получают уникальную возможность лететь с журавлями высоко над водными путями Венеции и скользить с белоголовым орланом над краем Большого каньона. Earthflight раскрывает секреты небес, показывая мир в новом, вдохновляющем чувства свете.
Содержание:

Episode 1: North America / Северная Америка
Продолжительность: 00:59:15
Episode 2: Africa / Африка
Продолжительность: 00:59:15
Episode 3: Europe / Европа
Продолжительность: 00:59:14
Episode 4: South America / Южная Америка
Продолжительность: 00:59:16
Episode 5: Asia & Australia / Азия и Австралия
Продолжительность: 00:59:16
Episode 6: Flying High / Летая высоко
Продолжительность: 00:59:12
IMDB Rate
Качество: BDRip1080p
Формат: MKV
Видео кодек: MPEG4/ISO/AVC
Аудио кодек: DTS
Видео: 1920x1080(16x9) , 25.000 fps, x264@L4.1,CRF, ~15129-19045 kbps avg
Аудио#1: Russian: 48 kHz, DTS, 2/0 (L,R) ch, 755.00 kbps avg |Одноголосый закадровый, Ю.Сербин|
Аудио#2: English: 48 kHz, DTS, 2/0 (L,R) ch, 755.00 kbps avg
Субтитры: English

General
Unique ID : 224158767178027110359295078947030515248 (0xA8A3687FD41BFADBA6802C1D9B6F3E30)
Complete name :Earthflight_2011-2012.BDRip1080p.x264-jezburg68\Earth.Flight.Ep01.North.America.BDRip1080p.mkv
Format : Matroska
Format version : Version 2
File size : 8.51 GiB
Duration : 59mn 15s
Overall bit rate : 20.6 Mbps
Encoded date : UTC 2012-11-01 13:03:01
Writing application : mkvmerge v5.6.0 ('Kenya Kane') built on May 27 2012 16:44:04
Writing library : libebml v1.2.3 + libmatroska v1.3.0
Video #1
ID : 1
Format : AVC
Format/Info : Advanced Video Codec
Format profile : High@L4.1
Format settings, CABAC : Yes
Format settings, ReFrames : 4 frames
Muxing mode : Container profile=Unknown@0.0
Codec ID : V_MPEG4/ISO/AVC
Duration : 59mn 15s
Bit rate : 18.7 Mbps
Width : 1 920 pixels
Height : 1 080 pixels
Display aspect ratio : 16:9
Frame rate : 25.000 fps
Color space : YUV
Chroma subsampling : 4:2:0
Bit depth : 8 bits
Scan type : Progressive
Bits/(Pixel*Frame) : 0.360
Stream size : 7.72 GiB (91%)
Title : Earth.Flight.Ep01.-Release for jezburg68
Writing library : x264 core 116 r2074 2641b9e
Encoding settings : cabac=1 / ref=4 / deblock=1:-3:-3 / analyse=0x3:0x133 / me=umh / subme=11 / psy=1 / psy_rd=1.05:0.05 / mixed_ref=1 / me_range=48 / chroma_me=1 / trellis=2 / 8x8dct=1 / cqm=0 / deadzone=21,11 / fast_pskip=0 / chroma_qp_offset=-3 / threads=6 / sliced_threads=0 / nr=0 / decimate=0 / interlaced=0 / bluray_compat=0 / constrained_intra=0 / bframes=7 / b_pyramid=2 / b_adapt=2 / b_bias=0 / direct=3 / weightb=1 / open_gop=0 / weightp=2 / keyint=250 / keyint_min=25 / scenecut=40 / intra_refresh=0 / rc_lookahead=60 / rc=crf / mbtree=0 / crf=18.0 / qcomp=0.65 / qpmin=0 / qpmax=69 / qpstep=4 / vbv_maxrate=50000 / vbv_bufsize=62500 / crf_max=0.0 / nal_hrd=none / ip_ratio=1.40 / pb_ratio=1.30 / aq=1:0.90
Default : No
Forced : No
Audio #2
ID : 2
Format : DTS
Format/Info : Digital Theater Systems
Codec ID : A_DTS
Duration : 59mn 15s
Bit rate mode : Constant
Bit rate : 755 Kbps
Channel(s) : 2 channels
Channel positions : Front: L R
Sampling rate : 48.0 KHz
Bit depth : 24 bits
Compression mode : Lossy
Stream size : 320 MiB (4%)
Title : DTS
Language : Russian
Default : Yes
Forced : No
Audio #3
ID : 3
Format : DTS
Format/Info : Digital Theater Systems
Codec ID : A_DTS
Duration : 59mn 15s
Bit rate mode : Constant
Bit rate : 755 Kbps
Channel(s) : 2 channels
Channel positions : Front: L R
Sampling rate : 48.0 KHz
Bit depth : 24 bits
Compression mode : Lossy
Stream size : 320 MiB (4%)
Language : English
Default : No
Forced : No
Text #4
ID : 4
Format : UTF-8
Codec ID : S_TEXT/UTF8
Codec ID/Info : UTF-8 Plain Text
Language : English
Default : No
Forced : No
Menu
00:00:00.000 : en:00:00:00.000
00:02:03.000 : en:00:02:03.000
00:16:06.640 : en:00:16:06.640
00:31:09.760 : en:00:31:09.760
00:44:36.160 : en:00:44:36.160
00:58:31.800 : en:00:58:31.800


General
Unique ID : 195385895293770210770961722030121908653 (0x92FDF463A96A91F2B885CF68EE1D79AD)
Complete name : Earthflight_2011-2012.BDRip1080p.x264-jezburg68\Earth.Flight.Ep02.Africa.BDRip1080p.mkv
Format : Matroska
Format version : Version 2
File size : 8.08 GiB
Duration : 59mn 15s
Overall bit rate : 19.5 Mbps
Encoded date : UTC 2012-11-01 13:05:51
Writing application : mkvmerge v5.6.0 ('Kenya Kane') built on May 27 2012 16:44:04
Writing library : libebml v1.2.3 + libmatroska v1.3.0
Video #1
ID : 1
Format : AVC
Format/Info : Advanced Video Codec
Format profile : High@L4.1
Format settings, CABAC : Yes
Format settings, ReFrames : 4 frames
Muxing mode : Container profile=Unknown@0.0
Codec ID : V_MPEG4/ISO/AVC
Duration : 59mn 15s
Bit rate : 17.6 Mbps
Width : 1 920 pixels
Height : 1 080 pixels
Display aspect ratio : 16:9
Frame rate : 25.000 fps
Color space : YUV
Chroma subsampling : 4:2:0
Bit depth : 8 bits
Scan type : Progressive
Bits/(Pixel*Frame) : 0.340
Stream size : 7.29 GiB (90%)
Title : Earth.Flight.Ep02.-Release for jezburg68
Writing library : x264 core 116 r2074 2641b9e
Encoding settings : cabac=1 / ref=4 / deblock=1:-3:-3 / analyse=0x3:0x133 / me=umh / subme=11 / psy=1 / psy_rd=1.05:0.05 / mixed_ref=1 / me_range=48 / chroma_me=1 / trellis=2 / 8x8dct=1 / cqm=0 / deadzone=21,11 / fast_pskip=0 / chroma_qp_offset=-3 / threads=6 / sliced_threads=0 / nr=0 / decimate=0 / interlaced=0 / bluray_compat=0 / constrained_intra=0 / bframes=7 / b_pyramid=2 / b_adapt=2 / b_bias=0 / direct=3 / weightb=1 / open_gop=0 / weightp=2 / keyint=250 / keyint_min=25 / scenecut=40 / intra_refresh=0 / rc_lookahead=60 / rc=crf / mbtree=0 / crf=18.0 / qcomp=0.65 / qpmin=0 / qpmax=69 / qpstep=4 / vbv_maxrate=50000 / vbv_bufsize=62500 / crf_max=0.0 / nal_hrd=none / ip_ratio=1.40 / pb_ratio=1.30 / aq=1:0.90
Default : No
Forced : No
Audio #2
ID : 2
Format : DTS
Format/Info : Digital Theater Systems
Codec ID : A_DTS
Duration : 59mn 15s
Bit rate mode : Constant
Bit rate : 755 Kbps
Channel(s) : 2 channels
Channel positions : Front: L R
Sampling rate : 48.0 KHz
Bit depth : 24 bits
Compression mode : Lossy
Stream size : 320 MiB (4%)
Title : DTS
Language : Russian
Default : Yes
Forced : No
Audio #3
ID : 3
Format : DTS
Format/Info : Digital Theater Systems
Codec ID : A_DTS
Duration : 59mn 15s
Bit rate mode : Constant
Bit rate : 755 Kbps
Channel(s) : 2 channels
Channel positions : Front: L R
Sampling rate : 48.0 KHz
Bit depth : 24 bits
Compression mode : Lossy
Stream size : 320 MiB (4%)
Language : English
Default : No
Forced : No
Text #4
ID : 4
Format : UTF-8
Codec ID : S_TEXT/UTF8
Codec ID/Info : UTF-8 Plain Text
Language : English
Default : No
Forced : No
Menu
00:00:00.000 : en:00:00:00.000
00:01:06.280 : en:00:01:06.280
00:15:59.040 : en:00:15:59.040
00:30:19.760 : en:00:30:19.760
00:45:02.720 : en:00:45:02.720
00:58:31.240 : en:00:58:31.240


General
Unique ID : 254674251745321802990173303759904020196 (0xBF987A0C4AF344348A0F9195864996E4)
Complete name : Earthflight_2011-2012.BDRip1080p.x264-jezburg68\Earth.Flight.Ep03.Europe.BDRip1080p.mkv
Format : Matroska
Format version : Version 2
File size : 7.08 GiB
Duration : 59mn 13s
Overall bit rate : 17.1 Mbps
Encoded date : UTC 2012-11-01 13:08:32
Writing application : mkvmerge v5.6.0 ('Kenya Kane') built on May 27 2012 16:44:04
Writing library : libebml v1.2.3 + libmatroska v1.3.0
Video #1
ID : 1
Format : AVC
Format/Info : Advanced Video Codec
Format profile : High@L4.1
Format settings, CABAC : Yes
Format settings, ReFrames : 4 frames
Muxing mode : Container profile=Unknown@0.0
Codec ID : V_MPEG4/ISO/AVC
Duration : 59mn 13s
Bit rate : 15.3 Mbps
Width : 1 920 pixels
Height : 1 080 pixels
Display aspect ratio : 16:9
Frame rate : 25.000 fps
Color space : YUV
Chroma subsampling : 4:2:0
Bit depth : 8 bits
Scan type : Progressive
Bits/(Pixel*Frame) : 0.295
Stream size : 6.32 GiB (89%)
Title : Earth.Flight.Ep03.-Release for jezburg68
Writing library : x264 core 116 r2074 2641b9e
Encoding settings : cabac=1 / ref=4 / deblock=1:-3:-3 / analyse=0x3:0x133 / me=umh / subme=11 / psy=1 / psy_rd=1.05:0.05 / mixed_ref=1 / me_range=48 / chroma_me=1 / trellis=2 / 8x8dct=1 / cqm=0 / deadzone=21,11 / fast_pskip=0 / chroma_qp_offset=-3 / threads=3 / sliced_threads=0 / nr=0 / decimate=0 / interlaced=0 / bluray_compat=0 / constrained_intra=0 / bframes=7 / b_pyramid=2 / b_adapt=2 / b_bias=0 / direct=3 / weightb=1 / open_gop=0 / weightp=2 / keyint=250 / keyint_min=25 / scenecut=40 / intra_refresh=0 / rc_lookahead=60 / rc=crf / mbtree=0 / crf=18.0 / qcomp=0.65 / qpmin=0 / qpmax=69 / qpstep=4 / vbv_maxrate=50000 / vbv_bufsize=62500 / crf_max=0.0 / nal_hrd=none / ip_ratio=1.40 / pb_ratio=1.30 / aq=1:0.90
Default : No
Forced : No
Audio #2
ID : 2
Format : DTS
Format/Info : Digital Theater Systems
Codec ID : A_DTS
Duration : 59mn 13s
Bit rate mode : Constant
Bit rate : 755 Kbps
Channel(s) : 2 channels
Channel positions : Front: L R
Sampling rate : 48.0 KHz
Bit depth : 24 bits
Compression mode : Lossy
Stream size : 320 MiB (4%)
Title : DTS
Language : Russian
Default : Yes
Forced : No
Audio #3
ID : 3
Format : DTS
Format/Info : Digital Theater Systems
Codec ID : A_DTS
Duration : 59mn 13s
Bit rate mode : Constant
Bit rate : 755 Kbps
Channel(s) : 2 channels
Channel positions : Front: L R
Sampling rate : 48.0 KHz
Bit depth : 24 bits
Compression mode : Lossy
Stream size : 320 MiB (4%)
Language : English
Default : No
Forced : No
Text #4
ID : 4
Format : UTF-8
Codec ID : S_TEXT/UTF8
Codec ID/Info : UTF-8 Plain Text
Language : English
Default : No
Forced : No
Menu
00:00:00.000 : en:00:00:00.000
00:01:06.280 : en:00:01:06.280
00:15:58.960 : en:00:15:58.960
00:27:22.880 : en:00:27:22.880
00:43:31.800 : en:00:43:31.800
00:58:31.000 : en:00:58:31.000


General
Unique ID : 214597991784607069736028452445388144703 (0xA17211E0ECD0E065BE7415A66BFA003F)
Complete name :Earthflight_2011-2012.BDRip1080p.x264-jezburg68\Earth.Flight.Ep04.South.America.BDRip1080p.mkv
Format : Matroska
Format version : Version 2
File size : 7.60 GiB
Duration : 59mn 16s
Overall bit rate : 18.4 Mbps
Encoded date : UTC 2012-11-01 13:10:57
Writing application : mkvmerge v5.6.0 ('Kenya Kane') built on May 27 2012 16:44:04
Writing library : libebml v1.2.3 + libmatroska v1.3.0
Video #1
ID : 1
Format : AVC
Format/Info : Advanced Video Codec
Format profile : High@L4.1
Format settings, CABAC : Yes
Format settings, ReFrames : 4 frames
Muxing mode : Container profile=Unknown@0.0
Codec ID : V_MPEG4/ISO/AVC
Duration : 59mn 16s
Bit rate : 16.5 Mbps
Width : 1 920 pixels
Height : 1 080 pixels
Display aspect ratio : 16:9
Frame rate : 25.000 fps
Color space : YUV
Chroma subsampling : 4:2:0
Bit depth : 8 bits
Scan type : Progressive
Bits/(Pixel*Frame) : 0.318
Stream size : 6.83 GiB (90%)
Title : Earth.Flight.Ep04.-Release for jezburg68
Writing library : x264 core 116 r2074 2641b9e
Encoding settings : cabac=1 / ref=4 / deblock=1:-3:-3 / analyse=0x3:0x133 / me=umh / subme=11 / psy=1 / psy_rd=1.05:0.05 / mixed_ref=1 / me_range=48 / chroma_me=1 / trellis=2 / 8x8dct=1 / cqm=0 / deadzone=21,11 / fast_pskip=0 / chroma_qp_offset=-3 / threads=6 / sliced_threads=0 / nr=0 / decimate=0 / interlaced=0 / bluray_compat=0 / constrained_intra=0 / bframes=7 / b_pyramid=2 / b_adapt=2 / b_bias=0 / direct=3 / weightb=1 / open_gop=0 / weightp=2 / keyint=250 / keyint_min=25 / scenecut=40 / intra_refresh=0 / rc_lookahead=60 / rc=crf / mbtree=0 / crf=18.0 / qcomp=0.65 / qpmin=0 / qpmax=69 / qpstep=4 / vbv_maxrate=50000 / vbv_bufsize=62500 / crf_max=0.0 / nal_hrd=none / ip_ratio=1.40 / pb_ratio=1.30 / aq=1:0.90
Default : No
Forced : No
Audio #2
ID : 2
Format : DTS
Format/Info : Digital Theater Systems
Codec ID : A_DTS
Duration : 59mn 16s
Bit rate mode : Constant
Bit rate : 755 Kbps
Channel(s) : 2 channels
Channel positions : Front: L R
Sampling rate : 48.0 KHz
Bit depth : 24 bits
Compression mode : Lossy
Stream size : 320 MiB (4%)
Title : DTS
Language : Russian
Default : Yes
Forced : No
Audio #3
ID : 3
Format : DTS
Format/Info : Digital Theater Systems
Codec ID : A_DTS
Duration : 59mn 16s
Bit rate mode : Constant
Bit rate : 755 Kbps
Channel(s) : 2 channels
Channel positions : Front: L R
Sampling rate : 48.0 KHz
Bit depth : 24 bits
Compression mode : Lossy
Stream size : 320 MiB (4%)
Language : English
Default : No
Forced : No
Text #4
ID : 4
Format : UTF-8
Codec ID : S_TEXT/UTF8
Codec ID/Info : UTF-8 Plain Text
Language : English
Default : No
Forced : No
Menu
00:00:00.000 : en:00:00:00.000
00:01:05.160 : en:00:01:05.160
00:11:30.160 : en:00:11:30.160
00:23:50.800 : en:00:23:50.800
00:43:53.080 : en:00:43:53.080
00:58:31.360 : en:00:58:31.360


General
Unique ID : 220912178400433353304787613318675983682 (0xA63223506FDE30CCB28F2CAB026C6D42)
Complete name :Earthflight_2011-2012.BDRip1080p.x264-jezburg68\Earth.Flight.Ep05.Asia.and.Australia.BDRip1080p.mkv
Format : Matroska
Format version : Version 2
File size : 6.90 GiB
Duration : 59mn 16s
Overall bit rate : 16.7 Mbps
Encoded date : UTC 2012-11-01 13:13:56
Writing application : mkvmerge v5.6.0 ('Kenya Kane') built on May 27 2012 16:44:04
Writing library : libebml v1.2.3 + libmatroska v1.3.0
Video #1
ID : 1
Format : AVC
Format/Info : Advanced Video Codec
Format profile : High@L4.1
Format settings, CABAC : Yes
Format settings, ReFrames : 4 frames
Muxing mode : Container profile=Unknown@0.0
Codec ID : V_MPEG4/ISO/AVC
Duration : 59mn 16s
Bit rate : 14.8 Mbps
Width : 1 920 pixels
Height : 1 080 pixels
Display aspect ratio : 16:9
Frame rate : 25.000 fps
Color space : YUV
Chroma subsampling : 4:2:0
Bit depth : 8 bits
Scan type : Progressive
Bits/(Pixel*Frame) : 0.286
Stream size : 6.13 GiB (89%)
Title : Earth.Flight.Ep05.-Release for jezburg68
Writing library : x264 core 116 r2074 2641b9e
Encoding settings : cabac=1 / ref=4 / deblock=1:-3:-3 / analyse=0x3:0x133 / me=umh / subme=11 / psy=1 / psy_rd=1.05:0.05 / mixed_ref=1 / me_range=48 / chroma_me=1 / trellis=2 / 8x8dct=1 / cqm=0 / deadzone=21,11 / fast_pskip=0 / chroma_qp_offset=-3 / threads=6 / sliced_threads=0 / nr=0 / decimate=0 / interlaced=0 / bluray_compat=0 / constrained_intra=0 / bframes=7 / b_pyramid=2 / b_adapt=2 / b_bias=0 / direct=3 / weightb=1 / open_gop=0 / weightp=2 / keyint=250 / keyint_min=25 / scenecut=40 / intra_refresh=0 / rc_lookahead=60 / rc=crf / mbtree=0 / crf=18.0 / qcomp=0.65 / qpmin=0 / qpmax=69 / qpstep=4 / vbv_maxrate=50000 / vbv_bufsize=62500 / crf_max=0.0 / nal_hrd=none / ip_ratio=1.40 / pb_ratio=1.30 / aq=1:0.90
Default : No
Forced : No
Audio #2
ID : 2
Format : DTS
Format/Info : Digital Theater Systems
Codec ID : A_DTS
Duration : 59mn 16s
Bit rate mode : Constant
Bit rate : 755 Kbps
Channel(s) : 2 channels
Channel positions : Front: L R
Sampling rate : 48.0 KHz
Bit depth : 24 bits
Compression mode : Lossy
Stream size : 320 MiB (5%)
Title : DTS
Language : Russian
Default : Yes
Forced : No
Audio #3
ID : 3
Format : DTS
Format/Info : Digital Theater Systems
Codec ID : A_DTS
Duration : 59mn 16s
Bit rate mode : Constant
Bit rate : 755 Kbps
Channel(s) : 2 channels
Channel positions : Front: L R
Sampling rate : 48.0 KHz
Bit depth : 24 bits
Compression mode : Lossy
Stream size : 320 MiB (5%)
Title : DTS
Language : English
Default : No
Forced : No
Text #4
ID : 4
Format : UTF-8
Codec ID : S_TEXT/UTF8
Codec ID/Info : UTF-8 Plain Text
Language : English
Default : No
Forced : No
Menu
00:00:00.000 : en:00:00:00.000
00:01:06.000 : en:00:01:06.000
00:13:18.480 : en:00:13:18.480
00:26:59.000 : en:00:26:59.000
00:41:02.480 : en:00:41:02.480
00:58:31.920 : en:00:58:31.920


General
Unique ID : 237179852762098107083886856919883067572 (0xB26F2D9599FD39A1889A7F4C008630B4)
Complete name :Earthflight_2011-2012.BDRip1080p.x264-jezburg68\Earth.Flight.Ep06.Flying.High.BDRip1080p.mkv
Format : Matroska
Format version : Version 2
File size : 7.12 GiB
Duration : 59mn 12s
Overall bit rate : 17.2 Mbps
Encoded date : UTC 2012-11-01 13:15:54
Writing application : mkvmerge v5.6.0 ('Kenya Kane') built on May 27 2012 16:44:04
Writing library : libebml v1.2.3 + libmatroska v1.3.0
Video #1
ID : 1
Format : AVC
Format/Info : Advanced Video Codec
Format profile : High@L4.1
Format settings, CABAC : Yes
Format settings, ReFrames : 4 frames
Muxing mode : Container profile=Unknown@0.0
Codec ID : V_MPEG4/ISO/AVC
Duration : 59mn 12s
Bit rate : 15.4 Mbps
Width : 1 920 pixels
Height : 1 080 pixels
Display aspect ratio : 16:9
Frame rate : 25.000 fps
Color space : YUV
Chroma subsampling : 4:2:0
Bit depth : 8 bits
Scan type : Progressive
Bits/(Pixel*Frame) : 0.296
Stream size : 6.35 GiB (89%)
Title : Earth.Flight.Ep06.-Release for jezburg68
Writing library : x264 core 116 r2074 2641b9e
Encoding settings : cabac=1 / ref=4 / deblock=1:-3:-3 / analyse=0x3:0x133 / me=umh / subme=11 / psy=1 / psy_rd=1.05:0.05 / mixed_ref=1 / me_range=48 / chroma_me=1 / trellis=2 / 8x8dct=1 / cqm=0 / deadzone=21,11 / fast_pskip=0 / chroma_qp_offset=-3 / threads=6 / sliced_threads=0 / nr=0 / decimate=0 / interlaced=0 / bluray_compat=0 / constrained_intra=0 / bframes=7 / b_pyramid=2 / b_adapt=2 / b_bias=0 / direct=3 / weightb=1 / open_gop=0 / weightp=2 / keyint=250 / keyint_min=25 / scenecut=40 / intra_refresh=0 / rc_lookahead=60 / rc=crf / mbtree=0 / crf=18.0 / qcomp=0.65 / qpmin=0 / qpmax=69 / qpstep=4 / vbv_maxrate=50000 / vbv_bufsize=62500 / crf_max=0.0 / nal_hrd=none / ip_ratio=1.40 / pb_ratio=1.30 / aq=1:0.90
Default : No
Forced : No
Audio #2
ID : 2
Format : DTS
Format/Info : Digital Theater Systems
Codec ID : A_DTS
Duration : 59mn 12s
Bit rate mode : Constant
Bit rate : 755 Kbps
Channel(s) : 2 channels
Channel positions : Front: L R
Sampling rate : 48.0 KHz
Bit depth : 24 bits
Compression mode : Lossy
Stream size : 319 MiB (4%)
Title : DTS
Language : Russian
Default : Yes
Forced : No
Audio #3
ID : 3
Format : DTS
Format/Info : Digital Theater Systems
Codec ID : A_DTS
Duration : 59mn 12s
Bit rate mode : Constant
Bit rate : 755 Kbps
Channel(s) : 2 channels
Channel positions : Front: L R
Sampling rate : 48.0 KHz
Bit depth : 24 bits
Compression mode : Lossy
Stream size : 319 MiB (4%)
Title : DTS
Language : English
Default : No
Forced : No
Text #4
ID : 4
Format : UTF-8
Codec ID : S_TEXT/UTF8
Codec ID/Info : UTF-8 Plain Text
Language : English
Default : No
Forced : No
Menu
00:00:00.000 : en:00:00:00.000
00:01:05.160 : en:00:01:05.160
00:11:30.160 : en:00:11:30.160
00:23:50.800 : en:00:23:50.800
00:43:53.080 : en:00:43:53.080
00:58:31.360 : en:00:58:31.360


1серия
x264 [info]: frame I:489 Avg QP:17.97 size:221558
x264 [info]: frame P:27790 Avg QP:19.06 size:131518
x264 [info]: frame B:60597 Avg QP:21.90 size: 77564
x264 [info]: consecutive B-frames: 7.2% 6.0% 22.0% 37.1% 14.3% 12.4% 0.9% 0.3%
x264 [info]: encoded 88875 frames, 2.85 fps, 12065.29kb/s
2серия
x264 [info]: frame I:513 Avg QP:17.64 size:232723
x264 [info]: frame P:28352 Avg QP:18.70 size:133399
x264 [info]: frame B:60011 Avg QP:20.98 size: 68243
x264 [info]: consecutive B-frames: 7.8% 6.6% 23.9% 33.1% 12.5% 15.5% 0.6% 0.1%
x264 [info]: encoded 88875 frames, 2.55 fps, 11695.48kb/s
3серия
x264 [info]: frame I:540 Avg QP:17.87 size:254494
x264 [info]: frame P:24578 Avg QP:17.99 size:124195
x264 [info]: frame B:63723 Avg QP:20.76 size: 58661
x264 [info]: consecutive B-frames: 4.7% 4.4% 19.1% 29.7% 18.7% 21.8% 1.4% 0.2%
x264 [info]: encoded 88840 frames, 2.95 fps, 12596.28kb/s
4серия
x264 [info]: frame I:587 Avg QP:17.90 size:270205
x264 [info]: frame P:27287 Avg QP:18.81 size:128999
x264 [info]: frame B:61027 Avg QP:21.39 size: 62397
x264 [info]: consecutive B-frames: 7.5% 5.9% 21.0% 30.5% 15.5% 17.4% 1.7% 0.5%
x264 [info]: encoded 88890 frames, 2.15 fps, 11842.35kb/s
5серия
x264 [info]: frame I:602 Avg QP:17.73 size:241946
x264 [info]: frame P:27462 Avg QP:18.35 size:117712
x264 [info]: frame B:60836 Avg QP:20.86 size: 55014
x264 [info]: consecutive B-frames: 7.2% 6.6% 24.0% 27.6% 14.3% 18.5% 1.4% 0.4%
x264 [info]: encoded 88900 frames, 2.35 fps, 12179.90kb/s
6серия
x264 [info]: frame I:576 Avg QP:16.98 size:258816
x264 [info]: frame P:27844 Avg QP:18.37 size:127288
x264 [info]: frame B:60381 Avg QP:20.65 size: 54196
x264 [info]: consecutive B-frames: 8.3% 5.2% 23.6% 26.9% 14.9% 19.9% 0.9% 0.1%
x264 [info]: encoded 88800 frames, 2.25 fps,12088.31kb/s


Вне форума Profile PM
Вверх
Показать сообщения:    
Ответить на тему Вверх
Список форумов ivbox.me » Документальные фильмы » BBC, Discovery, National Geographic » [BBC] Мир с высоты птичьего полета / Earthflight [2011-2012 , Документальный] BDRip 1080p

Текущее время: 16-Окт 10:13

Часовой пояс: GMT + 3


Вы не можете начинать темы
Вы не можете отвечать на сообщения
Вы не можете редактировать свои сообщения
Вы не можете удалять свои сообщения
Вы не можете голосовать в опросах
Вы не можете прикреплять файлы к сообщениям
Вы не можете скачивать файлы