Loading...
Error
Фрилич! «КАЧАЙ И РАЗДАВАЙ». Скачанное не засчитывается!
Регистрация
Имя:     Пароль:  
Забыли пароль?

Злые птички / Angry Birds Toons (Сезон: 1 / Серии: 1-52 из 52) (Ким Хельминен / Kim Helminen) [2013-2014, комедия, приключение, WEB-DLRip]

Список форумов ivbox.me » Мультипликация » Мультсериалы » Злые птички / Angry Birds Toons (Сезон: 1 / Серии: 1-52 из 52) (Ким Хельминен / Kim Helminen) [2013-2014, комедия, приключение, WEB-DLRip]
Ответить на тему Вниз :: Страницы:   Пред.  1 2
 
Автор Сообщение

Anonymous

Злые птички
Angry Birds Toons
Год выпуска: 2013-2014
Страна: Финляндия
Жанр: комедия, приключение
Продолжительность: 00:02:45 х 52
Перевод: не требуется
субтитры: отсутствуют
Режиссёр: Ким Хельминен : Kim Helminen
Описание: Мульсериал от студии Rovio о мегапопулярных Злых птичках. Рэд и его пернатые компаньоны - Чак, Матильда, Бомб, Блюз и Тэрэнс должны объединиться, чтобы защитить свои яйца, а вместе с ними и своё будущее, от коварных свиней!
Качество: WEB-DLRip (-Azureus-)
Формат: AVI
Видео кодек: XviD
Аудио кодек: MP3
Видео: 720x400, (1.80:1), 30 fps, XviD build 65 ~2400 kbps avg, 0.18 bit/pixel
Аудио: 44.100 kHz, MPEG Layer 3, 2 ch, ~128.00 kbps avg
01. Время Чака / Chuck Time
02. Где моя корона? / Where's my crown
03. Цельнометаллический Чак / Full Metal Chuck
04. Ещё один день рождения / Another birthday
05. Звуки из яиц / Egg sounds
06. Свиньи таланты / Pig talent
07. Гордон блю! / Cordon bleugh!
08. Чисто голубой? / True.Blue ?
09. Делай как я сказала! / Do as I Say !
10. Выходной / Off Duty
11. Рогатка для новичков / Slingshot 101
12. Громовой Чак / Thunder Chuck
13. Сад с Теренсом / Gardening with Terence
14. Растяпы на верёвке / Dopeys on a Rope
15. Троянское яйцо / Trojan Egg
16. Внимательный осмотр / Double Take
17. Свиньи для Краш-Теста / Crash Test Piggies
18. Беспечный дурак / Slappy Go Lucky
19. Тише едешь-дальше будешь! / Sneezy Does It
20. Беги, Чак,беги / Run Chuck Run
21. Гипносвиньи / Hypno Pigs
22. День яйца / Eggs Day
23. Стенокрушитель / Gate Crasher
24. Жареная свинья / Hog Roast
25. Птица, которая кричала: "Свинья" / The Bird That Cried : "Pig"
26. Побег из Свиношенка / HamShank Redemption
27. Суп из зелёных свиней / Green Pig Soup
28. День нападения / Catch Of The Day
29. Спокойной ночи, Теренс / Nighty Night Terence
30. Свиной парик / Piggy Wig
31. Зелье освинения / Pig Plot Potion
32. Королевский зуб / Tooth Royal
33. Ночь живой свинины / Night Of The Living Pork
34. Король замка / King Of The Castle
35. Любовь в воздухе / Love is in the Air
36. Поджигатель / Fired Up
37. Кукурузный конфликт / Clash Of Corns
38. Лучший друг свиньи / A Pig's Best Friends
39. Соня на лесопилке / Slumber Mill
40. Звенящие вопли / Jingle Yells
41. Эль Свинадор / El Porkador
42. Икота / Hiccups
43. Эффект бабочки / The Butterfly Effect
44. Хэмбо / Hambo
45. Птичий грипп / Bird Flu
46. Свиньи из глубин / Piggies From The Deep
47. О, гном! / Oh, Gnome!
48. Дело было в кустах / Shrub It In
49. Перемирие / The Truce
50. Оперная операция / Operation Opera
51. Выгнали / Chucked Out
52. Пробуждение Бомба / Bomb's Awake

Бонус-видео: "Познакомьтесь со стаей" / "Meet the flock"
Общее
Полное имя : D:\Im\Злые птички\Angry Birds Toons.2013.WEB-DLRip\01. Chuck Time.2013.WEB-DLRip.avi
Формат : AVI
Формат/Информация : Audio Video Interleave
Размер файла : 33,9 Мбайт
Продолжительность : 2 м. 45 с.
Общий поток : 1723 Кбит/сек
Программа кодирования : VirtualDubMod 1.5.10.3 (build 2550/release)
Библиотека кодирования : VirtualDubMod build 2550/release

Видео
Идентификатор : 0
Формат : MPEG-4 Visual
Профиль формата : Advanced Simple@L5
Параметр BVOP формата : 2
Параметр QPel формата : Нет
Параметр GMC формата : Без точки перехода
Параметр матрицы формата : Выборочная
Идентификатор кодека : XVID
Идентификатор кодека/Подсказка : XviD
Продолжительность : 2 м. 45 с.
Битрейт : 2400 Кбит/сек
Ширина : 720 пикселей
Высота : 400 пикселей
Соотношение сторон : 16:9
Частота кадров : 30,000 кадров/сек
Цветовое пространство : YUV
Субдискретизация насыщенности : 4:2:0
Битовая глубина : 8 бит
Тип развёртки : Прогрессивная
Метод сжатия : С потерями
Бит/(Пиксели*Кадры) : 0.183
Размер потока : 31,1 Мбайт (92%)
Библиотека кодирования : XviD 65

Аудио
Идентификатор : 1
Формат : MPEG Audio
Версия формата : Version 1
Профиль формата : Layer 3
Режим : Joint stereo
Идентификатор кодека : 55
Идентификатор кодека/Подсказка : MP3
Продолжительность : 2 м. 45 с.
Вид битрейта : Постоянный
Битрейт : 128 Кбит/сек
Каналы : 2 канала
Частота : 44,1 КГц
Метод сжатия : С потерями
Размер потока : 2,52 Мбайт (7%)
Выравнивание : Разделение по промежуткам
Продолжительность промежутка : 33 мс. (1,00 видеокадр)
Время предзагрузки промежутка : 500 мс.
Библиотека кодирования : LAME3.99r
Настройки программы : -m j -V 4 -q 3 -lowpass 17 -b 128
Внимание, это обновляемая раздача!!!
Всем скачавшим и поддерживающим раздачу - обновляйте скачанный релиз после каждого дополнения.
Вам нужно скачать обновленный торрент еще раз, вновь запустить его и сохранить обновленный релиз поверх старого, т.е. в ту же папку.
Profile PM

Автор Сообщение

Enzo

post 28-Окт-2013 13:34 (4 года 6 месяцев назад)

Quote

Добавлена 33 серия!
 

Enzo

post 03-Ноя-2013 18:31 (спустя 6 дней, 4 года 6 месяцев назад)

Quote

Добавлена 34 серия!
 

Enzo

post 11-Ноя-2013 12:50 (спустя 7 дней, 4 года 6 месяцев назад)

Quote

Добавлена 35 серия!
 

Enzo

post 17-Ноя-2013 20:24 (спустя 6 дней, 4 года 6 месяцев назад)

Quote

Добавлена 36 серия!
 

vlaskuzmich

Стаж: 5 лет 10 месяцев

Сообщений: 294

Награды: Нет

Рейтинг: 26,88
Скачано:  682,54 ГБ
Отдано:  15,115 ТБ
на своих 847,16 ГБ
бонус:  1,975 ТБ
Доступно 59,059 ТБ

post 24-Ноя-2013 20:06 (спустя 6 дней, 4 года 5 месяцев назад)

Quote

http://clip2net.com/s/6faFUd Very Happy

________________________________
Вне форума Profile PM

Enzo

post 22-Дек-2013 13:53 (спустя 27 дней, 4 года 5 месяцев назад)

Quote

Добавлена 41 серия!
 

Enzo

post 05-Янв-2014 13:09 (спустя 13 дней, 4 года 4 месяца назад)

Quote

Добавлена 42 и 43 серия!
 

Enzo

post 19-Янв-2014 16:11 (спустя 14 дней, 4 года 4 месяца назад)

Quote

Добавлена 44 и 45 серия!
 

Enzo

post 26-Янв-2014 12:48 (спустя 6 дней, 4 года 3 месяца назад)

Quote

Добавлена 46 серия!
 

Enzo

post 02-Фев-2014 15:22 (спустя 7 дней, 4 года 3 месяца назад)

Quote

Добавлена 47 серия!
 

Enzo

post 16-Фев-2014 12:47 (спустя 13 дней, 4 года 3 месяца назад)

Quote

Добавлена 48-49 серия!
 

Enzo

post 02-Мар-2014 16:48 (спустя 14 дней, 4 года 2 месяца назад)

Quote

Добавлена 50-51 серия!
 

Enzo

post 09-Мар-2014 12:38 (спустя 6 дней, 4 года 2 месяца назад)

Quote

Добавлена 52 серия! Конец 1-го сезона.
 
Вверх :: Страницы:   Пред.  1 2
Показать сообщения:    
Ответить на тему Вверх :: Страницы:   Пред.  1 2
Список форумов ivbox.me » Мультипликация » Мультсериалы » Злые птички / Angry Birds Toons (Сезон: 1 / Серии: 1-52 из 52) (Ким Хельминен / Kim Helminen) [2013-2014, комедия, приключение, WEB-DLRip]

Текущее время: 23-Май 21:34

Часовой пояс: GMT + 3


Вы не можете начинать темы
Вы не можете отвечать на сообщения
Вы не можете редактировать свои сообщения
Вы не можете удалять свои сообщения
Вы не можете голосовать в опросах
Вы не можете прикреплять файлы к сообщениям
Вы не можете скачивать файлы