Loading...
Error
Фрилич! «КАЧАЙ И РАЗДАВАЙ». Скачанное не засчитывается!
Регистрация
Имя:     Пароль:  
Забыли пароль?

Уорсоу по прозвищу Тигр / Tiger Warsaw [1988 г., Драма]

Список форумов ivbox.me » Зарубежные кинофильмы » Фильмы до 1990 года » Уорсоу по прозвищу Тигр / Tiger Warsaw [1988 г., Драма]
Ответить на тему Вниз
Статистика раздачи
Нет
 
     
Сделать раздачу рекомендованной:  Подтвердите 
 
Автор Сообщение

mihis

Сид-бонус: 6426646

 10 МБ/с   10 МБ/с

Стаж: 6 лет 1 месяц

Сообщений: 590

Откуда: Иваново

Награды: Нет

Рейтинг: 22177,62
Скачано:  78,9 ГБ
Отдано:  866,859 ТБ
на своих 772,901 ТБ
бонус:  69,125 ТБ
Доступно 5,563 ПБ

post 29-Дек-2013 22:35 (5 лет 6 месяцев назад)

Quote

Уорсоу по прозвищу Тигр / Tiger Warsaw
«Years ago he shattered his life. Now he's back to pick up the pieces»
Год выпуска: 1988
Страна: США, Сontinental Film Group Ltd.
Жанр: Драма
Продолжительность: 01:29:00
Перевод: Профессиональный (полное дублирование) + Оригинал
Субтитры: нет

Режиссер: Амин Чаудхри

В ролях: Патрик Суэйзи, Пайпер Лори, Ли Ричардсон, Мэри МакДоннелл, Барбара Уильямс, Бобби Ди Чикко, Дженни Крисинджер, Джеймс Патрик Гиллис, Мишель Клэвен, Кевин Байер, Бисон Кэрролл, Кэй Баллард, Том Вуд, Слоун Шелтон, Сильвия Дэвис, Кристофер Дуглас, Айми Дикс, Том Мэдден, Кеннет Кларк, Дон Брокетт, Хьюго Вашингтон, Лиза Клауд, Линда Уивер, Тэмми Лорен, Фрэнсис Клаус, Эрик Фрэнсис, Дэвид Брюс Хиндс, Кейт П. Каннингэм

Описание: История о бывшем наркомане Чаке Варсо по прозвищу Тигр, вернувшемся в родной дом после многих лет отсутствия. Когда-то Тигр обеспечил своей семье немало проблем, но теперь он полон решимости все исправить.

Качество: BDRip
Формат: AVI
Видео кодек: XviD
Аудио кодек: AC3
Видео: 704x352 (2.00:1), 25 fps, XviD build 50 ~1929 kbps avg, 0.31 bit/pixel
Аудио #1: 48 kHz, AC3 Dolby Digital, 2/0 (L,R) ch, ~192 kbps Dub
Аудио #2: 48 kHz, AC3 Dolby Digital, 2/0 (L,R) ch, ~192 kbps Eng
Общее
Полное имя : F:\Video\Tigr.Uorsou_1988.BDRip.Varus.Dubl.avi
Формат : AVI
Формат/Информация : Audio Video Interleave
Размер файла : 1,45 Гбайт
Продолжительность : 1 ч. 29 м.
Общий поток : 2329 Кбит/сек
Программа кодирования : VirtualDubModRus 1.5.10.2 (build 2542/release)
Библиотека кодирования : VirtualDubMod build 2542/release

Видео
Идентификатор : 0
Формат : MPEG-4 Visual
Профиль формата : Advanced Simple@L5
Параметр BVOP формата : 2
Параметр QPel формата : Нет
Параметр GMC формата : Без точки перехода
Параметр матрицы формата : Default (MPEG)
Идентификатор кодека : XVID
Идентификатор кодека/Подсказка : XviD
Продолжительность : 1 ч. 29 м.
Битрейт : 1930 Кбит/сек
Ширина : 704 пикселя
Высота : 352 пикселя
Соотношение сторон : 2,000
Частота кадров : 25,000 кадров/сек
Цветовое пространство : YUV
Субдискретизация насыщенности : 4:2:0
Битовая глубина : 8 бит
Тип развёртки : Прогрессивная
Метод сжатия : С потерями
Бит/(Пиксели*Кадры) : 0.312
Размер потока : 1,20 Гбайт (83%)
Библиотека кодирования : XviD 1.2.1 (UTC 2008-12-04)

Аудио #1
Идентификатор : 1
Формат : AC-3
Формат/Информация : Audio Coding 3
Расширение режима : CM (complete main)
Параметр Endianness формата : Big
Идентификатор кодека : 2000
Продолжительность : 1 ч. 29 м.
Вид битрейта : Постоянный
Битрейт : 192 Кбит/сек
Каналы : 2 канала
Расположение каналов : Front: L R
Частота : 48,0 КГц
Битовая глубина : 16 бит
Метод сжатия : С потерями
Размер потока : 122 Мбайт (8%)
Выравнивание : Разделение по промежуткам
Продолжительность промежутка : 40 мс. (1,00 видеокадр)
Время предзагрузки промежутка : 500 мс.

Аудио #2
Идентификатор : 2
Формат : AC-3
Формат/Информация : Audio Coding 3
Расширение режима : CM (complete main)
Параметр Endianness формата : Big
Идентификатор кодека : 2000
Продолжительность : 1 ч. 29 м.
Вид битрейта : Постоянный
Битрейт : 192 Кбит/сек
Каналы : 2 канала
Расположение каналов : Front: L R
Частота : 48,0 КГц
Битовая глубина : 16 бит
Метод сжатия : С потерями
Размер потока : 122 Мбайт (8%)
Выравнивание : Разделение по промежуткам
Продолжительность промежутка : 40 мс. (1,00 видеокадр)
Время предзагрузки промежутка : 500 мс.
Вне форума Profile PM

mihis

Сид-бонус: 6426646

 10 МБ/с   10 МБ/с

Стаж: 6 лет 1 месяц

Сообщений: 590

Откуда: Иваново

Награды: Нет

Рейтинг: 22177,62
Скачано:  78,9 ГБ
Отдано:  866,859 ТБ
на своих 772,901 ТБ
бонус:  69,125 ТБ
Доступно 5,563 ПБ

post 29-Дек-2013 22:35 (спустя 35 секунд, 5 лет 6 месяцев назад)

Quote

Редкий фильм и в первые в дубляже
Вне форума Profile PM
Вверх
Показать сообщения:    
Ответить на тему Вверх
Список форумов ivbox.me » Зарубежные кинофильмы » Фильмы до 1990 года » Уорсоу по прозвищу Тигр / Tiger Warsaw [1988 г., Драма]

Текущее время: 24-Июл 01:20

Часовой пояс: GMT + 3


Вы не можете начинать темы
Вы не можете отвечать на сообщения
Вы не можете редактировать свои сообщения
Вы не можете удалять свои сообщения
Вы не можете голосовать в опросах
Вы не можете прикреплять файлы к сообщениям
Вы не можете скачивать файлы