Loading...
Error
Фрилич! «КАЧАЙ И РАЗДАВАЙ». Скачанное не засчитывается!
Регистрация
Имя:     Пароль:  
Забыли пароль?

Подборка 3Д роликов (+ Демо с вылетами) [2012-2013 г., Демо, Видовые] Half SideBySide / Горизонтальная анаморфная стереопара

Список форумов ivbox.me » 3D видео » Разное (3D) » Подборка 3Д роликов (+ Демо с вылетами) [2012-2013 г., Демо, Видовые] Half SideBySide / Горизонтальная анаморфная стереопара
Ответить на тему Вниз
Статистика раздачи
Нет
 
     
Сделать раздачу рекомендованной:  Подтвердите 
 
Автор Сообщение

КлЁвЫй_Men

Сид-бонус: 501885

 1,5 МБ/с   100 КБ/с

Стаж: 5 лет 6 месяцев

Сообщений: 139

Откуда: Вичуга-Чертовищи

Награды: Нет

Рейтинг: 9,15
Скачано:  472,08 ГБ
Отдано:  1,465 ТБ
на своих 490,42 ГБ
бонус:  2,273 ТБ
Доступно 13,597 ТБ

post 06-Май-2014 00:07 (4 года 7 месяцев назад)

Quote

Подборка 3Д роликов (+ Демо с вылетами)



Год выпуска: 2012-2013
Страна: Корея, Япония, Китай, Тайвань
Жанр: Демо, Видовые
Продолжительность: ~ 46 минут
Перевод: Не требуется
Уникальный идентификатор : 229948557515287708006609682709183287910 (0xACFE7B33C5BCCD40A5DCB096B0695266)
Полное имя : D:\фильмы\фильмы\Подборка 3D роликов (+ Демо с вылетами)\AblazeAtTheExpo(3D-halfSBS).mkv
Формат : Matroska
Версия формата : Version 2
Размер файла : 357 Мбайт
Продолжительность : 8 м. 16 с.
Общий поток : 6027 Кбит/сек
Дата кодирования : UTC 2013-12-07 20:38:50
Программа кодирования : mkvmerge v5.8.0 ('No Sleep / Pillow') built on Sep 2 2012 15:37:04
Библиотека кодирования : libebml v1.2.3 + libmatroska v1.3.0

Видео
Идентификатор : 1
Формат : AVC
Формат/Информация : Advanced Video Codec
Профиль формата : High@L4.0
Параметр CABAC формата : Да
Параметр ReFrames формата : 1 кадр
Идентификатор кодека : V_MPEG4/ISO/AVC
Продолжительность : 8 м. 16 с.
Ширина : 1920 пикселей
Высота : 1080 пикселей
Соотношение сторон : 16:9
Режим частоты кадров : Постоянный
Частота кадров : 25,000 кадров/сек
Цветовое пространство : YUV
Субдискретизация насыщенности : 4:2:0
Битовая глубина : 8 бит
Тип развёртки : Прогрессивная
Default : Да
Forced : Нет

Аудио
Идентификатор : 2
Формат : AAC
Формат/Информация : Advanced Audio Codec
Профиль формата : LC
Идентификатор кодека : A_AAC
Продолжительность : 8 м. 16 с.
Каналы : 2 канала
Расположение каналов : Front: L R
Частота : 44,1 КГц
Метод сжатия : С потерями
Default : Да
Forced : Нет

Общее
Уникальный идентификатор : 254300857072866805816126571023917711453 (0xBF509044F195E79CAA7BBB4BB559005D)
Полное имя : D:\фильмы\фильмы\Подборка 3D роликов (+ Демо с вылетами)\HD.Club.tw-LaomeiGreenReef(2012)(3D-halfSBS).mkv
Формат : Matroska
Версия формата : Version 2
Размер файла : 526 Мбайт
Продолжительность : 6 м. 56 с.
Режим общего битрейта : Переменный
Общий поток : 10,6 Мбит/сек
Дата кодирования : UTC 2013-12-07 20:32:17
Программа кодирования : mkvmerge v5.8.0 ('No Sleep / Pillow') built on Sep 2 2012 15:37:04
Библиотека кодирования : libebml v1.2.3 + libmatroska v1.3.0

Видео
Идентификатор : 1
Формат : AVC
Формат/Информация : Advanced Video Codec
Профиль формата : High@L4.0
Параметр CABAC формата : Да
Параметр ReFrames формата : 4 кадра
Идентификатор кодека : V_MPEG4/ISO/AVC
Продолжительность : 6 м. 56 с.
Вид битрейта : Переменный
Битрейт : 10,0 Мбит/сек
Максимальный битрейт : 40,0 Мбит/сек
Ширина : 1920 пикселей
Высота : 1080 пикселей
Соотношение сторон : 16:9
Режим частоты кадров : Постоянный
Частота кадров : 23,976 кадра/сек
Цветовое пространство : YUV
Субдискретизация насыщенности : 4:2:0
Битовая глубина : 8 бит
Тип развёртки : Прогрессивная
Бит/(Пиксели*Кадры) : 0.202
Размер потока : 484 Мбайт (92%)
Библиотека кодирования : x264 core 112 r1834 a51816a
Настройки программы : cabac=1 / ref=1 / deblock=1:0:0 / analyse=0x3:0x3 / me=dia / subme=1 / psy=1 / psy_rd=0.00:0.00 / mixed_ref=0 / me_range=16 / chroma_me=1 / trellis=0 / 8x8dct=1 / cqm=0 / deadzone=21,11 / fast_pskip=1 / chroma_qp_offset=0 / threads=3 / sliced_threads=0 / nr=0 / decimate=1 / interlaced=0 / constrained_intra=0 / bframes=3 / b_pyramid=2 / b_adapt=1 / b_bias=0 / direct=1 / weightb=1 / open_gop=0 / weightp=1 / keyint=250 / keyint_min=23 / scenecut=40 / intra_refresh=0 / rc=abr / mbtree=0 / bitrate=10019 / ratetol=1.0 / qcomp=0.60 / qpmin=0 / qpmax=51 / qpstep=4 / ip_ratio=1.40 / pb_ratio=1.30 / aq=1:1.0
Default : Да
Forced : Нет

Аудио
Идентификатор : 2
Формат : AC-3
Формат/Информация : Audio Coding 3
Расширение режима : CM (complete main)
Параметр Endianness формата : Big
Идентификатор кодека : A_AC3
Продолжительность : 6 м. 56 с.
Вид битрейта : Постоянный
Битрейт : 640 Кбит/сек
Каналы : 2 канала
Расположение каналов : Front: L R
Частота : 48,0 КГц
Битовая глубина : 16 бит
Метод сжатия : С потерями
Размер потока : 31,8 Мбайт (6%)
Default : Да
Forced : Нет

Общее
Уникальный идентификатор : 196702432332061167163243184242081609213 (0x93FB82AD4220D50FA020B3D3A84B35FD)
Полное имя : D:\фильмы\фильмы\Подборка 3D роликов (+ Демо с вылетами)\HD.Club.tw-WulingFarmInSpring(2013)(3D-halfSBS).mkv
Формат : Matroska
Версия формата : Version 2
Размер файла : 300 Мбайт
Продолжительность : 7 м. 17 с.
Общий поток : 5755 Кбит/сек
Дата кодирования : UTC 2013-12-07 20:43:13
Программа кодирования : mkvmerge v5.8.0 ('No Sleep / Pillow') built on Sep 2 2012 15:37:04
Библиотека кодирования : libebml v1.2.3 + libmatroska v1.3.0

Видео
Идентификатор : 1
Формат : AVC
Формат/Информация : Advanced Video Codec
Профиль формата : High@L4.0
Параметр CABAC формата : Да
Параметр ReFrames формата : 1 кадр
Параметр GOP формата : M=1, N=60
Идентификатор кодека : V_MPEG4/ISO/AVC
Продолжительность : 7 м. 17 с.
Ширина : 1920 пикселей
Высота : 1080 пикселей
Соотношение сторон : 16:9
Режим частоты кадров : Постоянный
Частота кадров : 29,970 кадров/сек
Цветовое пространство : YUV
Субдискретизация насыщенности : 4:2:0
Битовая глубина : 8 бит
Тип развёртки : Прогрессивная
Default : Да
Forced : Нет

Аудио
Идентификатор : 2
Формат : AAC
Формат/Информация : Advanced Audio Codec
Профиль формата : LC
Идентификатор кодека : A_AAC
Продолжительность : 7 м. 17 с.
Каналы : 2 канала
Расположение каналов : Front: L R
Частота : 44,1 КГц
Метод сжатия : С потерями
Default : Да
Forced : Нет

Общее
Уникальный идентификатор : 246260506830519411580213563996290088626 (0xB9440C656A881A47874972CA781EFEB2)
Полное имя : D:\фильмы\фильмы\Подборка 3D роликов (+ Демо с вылетами)\LG.Demo(3D-halfSBS).mkv
Формат : Matroska
Версия формата : Version 2
Размер файла : 75,5 Мбайт
Продолжительность : 2 м. 26 с.
Общий поток : 4322 Кбит/сек
Дата кодирования : UTC 2013-12-07 20:27:14
Программа кодирования : mkvmerge v5.8.0 ('No Sleep / Pillow') built on Sep 2 2012 15:37:04
Библиотека кодирования : libebml v1.2.3 + libmatroska v1.3.0

Видео
Идентификатор : 1
Формат : AVC
Формат/Информация : Advanced Video Codec
Профиль формата : High@L4.0
Параметр CABAC формата : Да
Параметр ReFrames формата : 1 кадр
Параметр GOP формата : M=1, N=48
Идентификатор кодека : V_MPEG4/ISO/AVC
Продолжительность : 2 м. 26 с.
Ширина : 1920 пикселей
Высота : 1080 пикселей
Соотношение сторон : 16:9
Режим частоты кадров : Постоянный
Частота кадров : 23,976 кадра/сек
Цветовое пространство : YUV
Субдискретизация насыщенности : 4:2:0
Битовая глубина : 8 бит
Тип развёртки : Прогрессивная
Default : Да
Forced : Нет

Аудио
Идентификатор : 2
Формат : AAC
Формат/Информация : Advanced Audio Codec
Профиль формата : LC
Идентификатор кодека : A_AAC
Продолжительность : 2 м. 26 с.
Каналы : 2 канала
Расположение каналов : Front: L R
Частота : 44,1 КГц
Метод сжатия : С потерями
Default : Да
Forced : Нет

Общее
Уникальный идентификатор : 227930702144246225724504800504574739524 (0xAB79DB4056B74AA089E814DB2D0D8444)
Полное имя : D:\фильмы\фильмы\Подборка 3D роликов (+ Демо с вылетами)\LG.Demo-BeyondReality(3D-halfSBS).mkv
Формат : Matroska
Версия формата : Version 2
Размер файла : 318 Мбайт
Продолжительность : 4 м. 8 с.
Режим общего битрейта : Переменный
Общий поток : 10,7 Мбит/сек
Дата кодирования : UTC 2013-12-06 19:30:23
Программа кодирования : mkvmerge v5.8.0 ('No Sleep / Pillow') built on Sep 2 2012 15:37:04
Библиотека кодирования : libebml v1.2.3 + libmatroska v1.3.0

Видео
Идентификатор : 1
Формат : AVC
Формат/Информация : Advanced Video Codec
Профиль формата : High@L4.0
Параметр CABAC формата : Да
Параметр ReFrames формата : 4 кадра
Идентификатор кодека : V_MPEG4/ISO/AVC
Продолжительность : 4 м. 8 с.
Вид битрейта : Переменный
Битрейт : 10,0 Мбит/сек
Максимальный битрейт : 40,0 Мбит/сек
Ширина : 1920 пикселей
Высота : 1080 пикселей
Соотношение сторон : 16:9
Режим частоты кадров : Постоянный
Частота кадров : 23,976 кадра/сек
Цветовое пространство : YUV
Субдискретизация насыщенности : 4:2:0
Битовая глубина : 8 бит
Тип развёртки : Прогрессивная
Бит/(Пиксели*Кадры) : 0.202
Размер потока : 293 Мбайт (92%)
Библиотека кодирования : x264 core 112 r1834 a51816a
Настройки программы : cabac=1 / ref=1 / deblock=1:0:0 / analyse=0x3:0x3 / me=dia / subme=1 / psy=1 / psy_rd=0.00:0.00 / mixed_ref=0 / me_range=16 / chroma_me=1 / trellis=0 / 8x8dct=1 / cqm=0 / deadzone=21,11 / fast_pskip=1 / chroma_qp_offset=0 / threads=3 / sliced_threads=0 / nr=0 / decimate=1 / interlaced=0 / constrained_intra=0 / bframes=3 / b_pyramid=2 / b_adapt=1 / b_bias=0 / direct=1 / weightb=1 / open_gop=0 / weightp=1 / keyint=250 / keyint_min=23 / scenecut=40 / intra_refresh=0 / rc=abr / mbtree=0 / bitrate=10019 / ratetol=1.0 / qcomp=0.60 / qpmin=0 / qpmax=51 / qpstep=4 / ip_ratio=1.40 / pb_ratio=1.30 / aq=1:1.0
Default : Да
Forced : Нет

Аудио
Идентификатор : 2
Формат : AC-3
Формат/Информация : Audio Coding 3
Расширение режима : CM (complete main)
Параметр Endianness формата : Big
Идентификатор кодека : A_AC3
Продолжительность : 4 м. 8 с.
Вид битрейта : Постоянный
Битрейт : 640 Кбит/сек
Каналы : 6 каналов
Расположение каналов : Front: L C R, Side: L R, LFE
Частота : 48,0 КГц
Битовая глубина : 16 бит
Метод сжатия : С потерями
Размер потока : 18,9 Мбайт (6%)
Default : Да
Forced : Нет

Общее
Уникальный идентификатор : 197933076544249098028553961541309317923 (0x94E8861EF959487887473B575A284323)
Полное имя : D:\фильмы\фильмы\Подборка 3D роликов (+ Демо с вылетами)\LG.Demo-MagicWorld(3D-halfSBS).mkv
Формат : Matroska
Версия формата : Version 2
Размер файла : 246 Мбайт
Продолжительность : 3 м. 24 с.
Режим общего битрейта : Переменный
Общий поток : 10,1 Мбит/сек
Дата кодирования : UTC 2013-12-07 20:36:35
Программа кодирования : mkvmerge v5.8.0 ('No Sleep / Pillow') built on Sep 2 2012 15:37:04
Библиотека кодирования : libebml v1.2.3 + libmatroska v1.3.0

Видео
Идентификатор : 1
Формат : AVC
Формат/Информация : Advanced Video Codec
Профиль формата : High@L4.0
Параметр CABAC формата : Да
Параметр ReFrames формата : 4 кадра
Идентификатор кодека : V_MPEG4/ISO/AVC
Продолжительность : 3 м. 24 с.
Вид битрейта : Переменный
Битрейт : 9249 Кбит/сек
Номинальный битрейт : 10,0 Мбит/сек
Максимальный битрейт : 40,0 Мбит/сек
Ширина : 1920 пикселей
Высота : 1080 пикселей
Соотношение сторон : 16:9
Режим частоты кадров : Постоянный
Частота кадров : 23,976 кадра/сек
Цветовое пространство : YUV
Субдискретизация насыщенности : 4:2:0
Битовая глубина : 8 бит
Тип развёртки : Прогрессивная
Бит/(Пиксели*Кадры) : 0.186
Размер потока : 226 Мбайт (92%)
Библиотека кодирования : x264 core 112 r1834 a51816a
Настройки программы : cabac=1 / ref=1 / deblock=1:0:0 / analyse=0x3:0x3 / me=dia / subme=1 / psy=1 / psy_rd=0.00:0.00 / mixed_ref=0 / me_range=16 / chroma_me=1 / trellis=0 / 8x8dct=1 / cqm=0 / deadzone=21,11 / fast_pskip=1 / chroma_qp_offset=0 / threads=3 / sliced_threads=0 / nr=0 / decimate=1 / interlaced=0 / constrained_intra=0 / bframes=3 / b_pyramid=2 / b_adapt=1 / b_bias=0 / direct=1 / weightb=1 / open_gop=0 / weightp=1 / keyint=250 / keyint_min=23 / scenecut=40 / intra_refresh=0 / rc=abr / mbtree=0 / bitrate=10019 / ratetol=1.0 / qcomp=0.60 / qpmin=0 / qpmax=51 / qpstep=4 / ip_ratio=1.40 / pb_ratio=1.30 / aq=1:1.0
Default : Да
Forced : Нет

Аудио
Идентификатор : 2
Формат : AC-3
Формат/Информация : Audio Coding 3
Расширение режима : CM (complete main)
Параметр Endianness формата : Big
Идентификатор кодека : A_AC3
Продолжительность : 3 м. 24 с.
Вид битрейта : Постоянный
Битрейт : 640 Кбит/сек
Каналы : 6 каналов
Расположение каналов : Front: L C R, Side: L R, LFE
Частота : 48,0 КГц
Битовая глубина : 16 бит
Метод сжатия : С потерями
Размер потока : 15,6 Мбайт (6%)
Default : Да
Forced : Нет

Общее
Уникальный идентификатор : 223461543935459304118675435863202134560 (0xA81D20BD4BD288A3B1D523710FD0FA20)
Полное имя : D:\фильмы\фильмы\Подборка 3D роликов (+ Демо с вылетами)\Panasonic.Demo-Furusato(3D-halfSBS).mkv
Формат : Matroska
Версия формата : Version 2
Размер файла : 241 Мбайт
Продолжительность : 3 м. 11 с.
Режим общего битрейта : Переменный
Общий поток : 10,5 Мбит/сек
Дата кодирования : UTC 2013-12-07 20:37:33
Программа кодирования : mkvmerge v5.8.0 ('No Sleep / Pillow') built on Sep 2 2012 15:37:04
Библиотека кодирования : libebml v1.2.3 + libmatroska v1.3.0

Видео
Идентификатор : 1
Формат : AVC
Формат/Информация : Advanced Video Codec
Профиль формата : High@L4.0
Параметр CABAC формата : Да
Параметр ReFrames формата : 4 кадра
Идентификатор кодека : V_MPEG4/ISO/AVC
Продолжительность : 3 м. 11 с.
Вид битрейта : Переменный
Битрейт : 10,0 Мбит/сек
Максимальный битрейт : 40,0 Мбит/сек
Ширина : 1920 пикселей
Высота : 1080 пикселей
Соотношение сторон : 16:9
Режим частоты кадров : Постоянный
Частота кадров : 23,976 кадра/сек
Цветовое пространство : YUV
Субдискретизация насыщенности : 4:2:0
Битовая глубина : 8 бит
Тип развёртки : Прогрессивная
Бит/(Пиксели*Кадры) : 0.202
Размер потока : 221 Мбайт (92%)
Библиотека кодирования : x264 core 112 r1834 a51816a
Настройки программы : cabac=1 / ref=1 / deblock=1:0:0 / analyse=0x3:0x3 / me=dia / subme=1 / psy=1 / psy_rd=0.00:0.00 / mixed_ref=0 / me_range=16 / chroma_me=1 / trellis=0 / 8x8dct=1 / cqm=0 / deadzone=21,11 / fast_pskip=1 / chroma_qp_offset=0 / threads=3 / sliced_threads=0 / nr=0 / decimate=1 / interlaced=0 / constrained_intra=0 / bframes=3 / b_pyramid=2 / b_adapt=1 / b_bias=0 / direct=1 / weightb=1 / open_gop=0 / weightp=1 / keyint=250 / keyint_min=23 / scenecut=40 / intra_refresh=0 / rc=abr / mbtree=0 / bitrate=10019 / ratetol=1.0 / qcomp=0.60 / qpmin=0 / qpmax=51 / qpstep=4 / ip_ratio=1.40 / pb_ratio=1.30 / aq=1:1.0
Default : Да
Forced : Нет

Аудио
Идентификатор : 2
Формат : AC-3
Формат/Информация : Audio Coding 3
Расширение режима : CM (complete main)
Параметр Endianness формата : Big
Идентификатор кодека : A_AC3
Продолжительность : 3 м. 11 с.
Вид битрейта : Постоянный
Битрейт : 640 Кбит/сек
Каналы : 2 канала
Расположение каналов : Front: L R
Частота : 48,0 КГц
Битовая глубина : 16 бит
Метод сжатия : С потерями
Размер потока : 14,6 Мбайт (6%)
Default : Да
Forced : Нет

Общее
Уникальный идентификатор : 213861079287582229486737416798509131182 (0xA0E4254992D1E354B174BC7BA182E5AE)
Полное имя : D:\фильмы\фильмы\Подборка 3D роликов (+ Демо с вылетами)\Samsung.Demo-DeliciousFight(3D-halfSBS).mkv
Формат : Matroska
Версия формата : Version 2
Размер файла : 115 Мбайт
Продолжительность : 2 м. 41 с.
Общий поток : 5984 Кбит/сек
Дата кодирования : UTC 2013-12-07 20:41:12
Программа кодирования : mkvmerge v5.8.0 ('No Sleep / Pillow') built on Sep 2 2012 15:37:04
Библиотека кодирования : libebml v1.2.3 + libmatroska v1.3.0

Видео
Идентификатор : 1
Формат : AVC
Формат/Информация : Advanced Video Codec
Профиль формата : High@L4.0
Параметр CABAC формата : Да
Параметр ReFrames формата : 1 кадр
Параметр GOP формата : M=1, N=48
Идентификатор кодека : V_MPEG4/ISO/AVC
Продолжительность : 2 м. 41 с.
Ширина : 1920 пикселей
Высота : 1080 пикселей
Соотношение сторон : 16:9
Режим частоты кадров : Постоянный
Частота кадров : 23,976 кадра/сек
Цветовое пространство : YUV
Субдискретизация насыщенности : 4:2:0
Битовая глубина : 8 бит
Тип развёртки : Прогрессивная
Default : Да
Forced : Нет

Аудио
Идентификатор : 2
Формат : AAC
Формат/Информация : Advanced Audio Codec
Профиль формата : LC
Идентификатор кодека : A_AAC
Продолжительность : 2 м. 41 с.
Каналы : 2 канала
Расположение каналов : Front: L R
Частота : 44,1 КГц
Метод сжатия : С потерями
Default : Да
Forced : Нет

Общее
Уникальный идентификатор : 235992084430117214051260575790584261770 (0xB18A6C15939A2E9D85BE53B4C2836C8A)
Полное имя : D:\фильмы\фильмы\Подборка 3D роликов (+ Демо с вылетами)\Sony.Demo-Borneo(3D-halfSBS)720p.mkv
Формат : Matroska
Версия формата : Version 2
Размер файла : 66,6 Мбайт
Продолжительность : 4 м. 6 с.
Общий поток : 2267 Кбит/сек
Дата кодирования : UTC 2013-12-31 07:41:30
Программа кодирования : mkvmerge v5.8.0 ('No Sleep / Pillow') built on Sep 2 2012 15:37:04
Библиотека кодирования : libebml v1.2.3 + libmatroska v1.3.0

Видео
Идентификатор : 1
Формат : AVC
Формат/Информация : Advanced Video Codec
Профиль формата : High@L3.1
Параметр CABAC формата : Да
Параметр ReFrames формата : 1 кадр
Параметр GOP формата : M=1, N=60
Идентификатор кодека : V_MPEG4/ISO/AVC
Продолжительность : 4 м. 6 с.
Ширина : 1280 пикселей
Высота : 720 пикселей
Соотношение сторон : 16:9
Режим частоты кадров : Постоянный
Частота кадров : 29,970 кадров/сек
Цветовое пространство : YUV
Субдискретизация насыщенности : 4:2:0
Битовая глубина : 8 бит
Тип развёртки : Прогрессивная
Язык : English
Default : Да
Forced : Нет

Аудио
Идентификатор : 2
Формат : AAC
Формат/Информация : Advanced Audio Codec
Профиль формата : LC
Идентификатор кодека : A_AAC
Продолжительность : 4 м. 6 с.
Каналы : 2 канала
Расположение каналов : Front: L R
Частота : 44,1 КГц
Метод сжатия : С потерями
Язык : English
Default : Да
Forced : Нет

Общее
Уникальный идентификатор : 230804238831320633615200901813525327264 (0xADA3478C5F871918B787C94B00C4ADA0)
Полное имя : D:\фильмы\фильмы\Подборка 3D роликов (+ Демо с вылетами)\Sony.Demo-GoPro(3D-halfSBS)720p.mkv
Формат : Matroska
Версия формата : Version 2
Размер файла : 68,6 Мбайт
Продолжительность : 3 м. 15 с.
Общий поток : 2952 Кбит/сек
Дата кодирования : UTC 2013-12-31 07:40:39
Программа кодирования : mkvmerge v5.8.0 ('No Sleep / Pillow') built on Sep 2 2012 15:37:04
Библиотека кодирования : libebml v1.2.3 + libmatroska v1.3.0

Видео
Идентификатор : 1
Формат : AVC
Формат/Информация : Advanced Video Codec
Профиль формата : High@L3.1
Параметр CABAC формата : Да
Параметр ReFrames формата : 1 кадр
Идентификатор кодека : V_MPEG4/ISO/AVC
Продолжительность : 3 м. 14 с.
Ширина : 1280 пикселей
Высота : 720 пикселей
Соотношение сторон : 16:9
Режим частоты кадров : Постоянный
Частота кадров : 29,970 кадров/сек
Цветовое пространство : YUV
Субдискретизация насыщенности : 4:2:0
Битовая глубина : 8 бит
Тип развёртки : Прогрессивная
Язык : English
Default : Да
Forced : Нет

Аудио
Идентификатор : 2
Формат : AAC
Формат/Информация : Advanced Audio Codec
Профиль формата : LC
Идентификатор кодека : A_AAC
Продолжительность : 3 м. 15 с.
Каналы : 2 канала
Расположение каналов : Front: L R
Частота : 44,1 КГц
Метод сжатия : С потерями
Язык : English
Default : Да
Forced : Нет

Общее
Уникальный идентификатор : 196821617961738809396420724895880029916 (0x941276FB65D51A49A973CDD70F67A6DC)
Полное имя : D:\фильмы\фильмы\Подборка 3D роликов (+ Демо с вылетами)\Sony.Demo-Sports(3D-halfSBS).mkv
Формат : Matroska
Версия формата : Version 2
Размер файла : 109 Мбайт
Продолжительность : 1 м. 25 с.
Режим общего битрейта : Переменный
Общий поток : 10,7 Мбит/сек
Дата кодирования : UTC 2013-12-07 20:38:08
Программа кодирования : mkvmerge v5.8.0 ('No Sleep / Pillow') built on Sep 2 2012 15:37:04
Библиотека кодирования : libebml v1.2.3 + libmatroska v1.3.0

Видео
Идентификатор : 1
Формат : AVC
Формат/Информация : Advanced Video Codec
Профиль формата : High@L4.0
Параметр CABAC формата : Да
Параметр ReFrames формата : 4 кадра
Идентификатор кодека : V_MPEG4/ISO/AVC
Продолжительность : 1 м. 25 с.
Вид битрейта : Переменный
Битрейт : 10,0 Мбит/сек
Максимальный битрейт : 40,0 Мбит/сек
Ширина : 1920 пикселей
Высота : 1080 пикселей
Соотношение сторон : 16:9
Режим частоты кадров : Постоянный
Частота кадров : 23,976 кадра/сек
Цветовое пространство : YUV
Субдискретизация насыщенности : 4:2:0
Битовая глубина : 8 бит
Тип развёртки : Прогрессивная
Бит/(Пиксели*Кадры) : 0.202
Размер потока : 100 Мбайт (92%)
Библиотека кодирования : x264 core 112 r1834 a51816a
Настройки программы : cabac=1 / ref=1 / deblock=1:0:0 / analyse=0x3:0x3 / me=dia / subme=1 / psy=1 / psy_rd=0.00:0.00 / mixed_ref=0 / me_range=16 / chroma_me=1 / trellis=0 / 8x8dct=1 / cqm=0 / deadzone=21,11 / fast_pskip=1 / chroma_qp_offset=0 / threads=3 / sliced_threads=0 / nr=0 / decimate=1 / interlaced=0 / constrained_intra=0 / bframes=3 / b_pyramid=2 / b_adapt=1 / b_bias=0 / direct=1 / weightb=1 / open_gop=0 / weightp=1 / keyint=250 / keyint_min=23 / scenecut=40 / intra_refresh=0 / rc=abr / mbtree=0 / bitrate=10019 / ratetol=1.0 / qcomp=0.60 / qpmin=0 / qpmax=51 / qpstep=4 / ip_ratio=1.40 / pb_ratio=1.30 / aq=1:1.0
Default : Да
Forced : Нет

Аудио
Идентификатор : 2
Формат : AC-3
Формат/Информация : Audio Coding 3
Расширение режима : CM (complete main)
Параметр Endianness формата : Big
Идентификатор кодека : A_AC3
Продолжительность : 1 м. 25 с.
Вид битрейта : Постоянный
Битрейт : 640 Кбит/сек
Каналы : 6 каналов
Расположение каналов : Front: L C R, Side: L R, LFE
Частота : 48,0 КГц
Битовая глубина : 16 бит
Метод сжатия : С потерями
Размер потока : 6,55 Мбайт (6%)
Default : Да
Forced : Нет
Описание: Видовые и демо 3Д ролики. Демо-ролики в основном специально демонстрируют 3Д-вылеты с замедлением.

Качество: HDTVRip
Формат: MKV
Формат 3D: Half SideBySide / Горизонтальная анаморфная стереопара
Порядок ракурсов: левый ракурс первый
Разрешение: 720p, 1080p
Видео кодек: AVC
Аудио кодек: AAC, AC3
Вне форума Profile PM

MazaFak

Сид-бонус: 22367
Сид-бонус: 22367

 10 МБ/с   5 МБ/с

Стаж: 11 лет

Сообщений: 58

Откуда: Кинешма

Награды: Нет

Рейтинг: 9,54
Скачано:  775,19 ГБ
Отдано:  4,803 ТБ
на своих 1,445 ТБ
бонус:  995,19 ГБ
Доступно 23,311 ТБ

post 06-Май-2014 11:41 (спустя 11 часов, 4 года 7 месяцев назад)

Quote

Качну и проверю на своей лыже LW4500
Вне форума Profile PM

ROFD

post 25-Ноя-2018 19:52 (спустя 4 года 6 месяцев, 22 дня назад)

Quote

На телевизоре LG-49UB830V-ZB работает без проблем со всеми вылетами
 
Вверх
Показать сообщения:    
Ответить на тему Вверх
Список форумов ivbox.me » 3D видео » Разное (3D) » Подборка 3Д роликов (+ Демо с вылетами) [2012-2013 г., Демо, Видовые] Half SideBySide / Горизонтальная анаморфная стереопара

Текущее время: 18-Дек 14:03

Часовой пояс: GMT + 3


Вы не можете начинать темы
Вы не можете отвечать на сообщения
Вы не можете редактировать свои сообщения
Вы не можете удалять свои сообщения
Вы не можете голосовать в опросах
Вы не можете прикреплять файлы к сообщениям
Вы не можете скачивать файлы