Loading...
Error
Фрилич! «КАЧАЙ И РАЗДАВАЙ». Скачанное не засчитывается!
Регистрация
Имя:     Пароль:  
Забыли пароль?

[Rock] Смысловые галлюцинации (Сергей Бобунец) / Трудных времён песни (2016), FLAC (tracks)

Список форумов ivbox.me » Музыка Lossless » Русский рок » [Rock] Смысловые галлюцинации (Сергей Бобунец) / Трудных времён песни (2016), FLAC (tracks)
Ответить на тему Вниз
Статистика раздачи
Скачали: [ 1 ]
 
     
Сделать раздачу рекомендованной:  Подтвердите 
 
Автор Сообщение

Михалыч

Сид-бонус: 1234369

 2 МБ/с   2 МБ/с

Стаж: 9 лет

Сообщений: 5475

Откуда: Шуя-город

Награды: Нет

Рейтинг: 790,27
Скачано:  1,32 ТБ
Отдано:  563,837 ТБ
на своих 443,813 ТБ
бонус:  35,669 ТБ
Доступно 3,395 ПБ

post 12-Мар-2017 17:05 (4 месяца 8 дней назад)

Quote

Смысловые галлюцинации (Сергей Бобунец) / Трудных времён песни



Страна: Россия
Издатель (лейбл): Первое музыкальное издательство
Номер по каталогу: не для продажи
Жанр: Rock
Год выпуска: 2016
Формат: FLAC (tracks)
Продолжительность: 01:40:55

Последний проект группы "Смысловые галлюцинации" - альбом «Трудных Времён Песни». Релиз состоялся в конце 2016 года.
В альбом вошли неиздававшиеся ранее треки, наконец-то записанные каверы любимых песен, перезаписанные современные версии хитов группы и одна абсолютно новая песня.
Проект состоялся при помощи фанатов группы на сайте Planeta.ru (проект собрал 1047100 рублей)
01. Зверь 2 (3:38)
02. Розовые Очки (4:40)
03. Охотники (3:36)
04. Демоны (4:05)
05. Мысленный Волк (3:26)
06. Первый День Осени (3:45)
07. Бездна (4:04)
08. Зачем Топтать Мою Любовь (4:25)
09. Без стюардесс (4:29)
10. Всё в порядке (3:58)
11. Больше чем жизнь (3:00)
12. Апрель (4:28)
13. Вечно Молодой (3:18)
14. Всё будет волшебно (3:56)
15. Разум когда-нибудь победит (feat. оркестр B-A-C-H) (3:13)
16. Вечность встанет с нами рядом (feat. оркестр B-A-C-H) (4:37)
17. Последнее признание (3:40)
Exact Audio Copy V1.0 beta 3 from 29. August 2011
Отчёт EAC об извлечении, выполненном 12. марта 2017, 12:24
Смысловые галлюцинации / Трудных времён песни (CD 1)
Дисковод: PIONEER DVD-RW  DVR-218L   Adapter: 0  ID: 0
Режим чтения                 : Достоверность
Использование точного потока : Да
Отключение кэша аудио        : Да
Использование указателей C2  : Нет
Коррекция смещения при чтении                     : 6
Способность читать области Lead-in и Lead-out     : Нет
Заполнение пропущенных сэмплов тишиной            : Да
Удаление блоков с тишиной в начале и конце        : Нет
При вычислениях CRC использовались нулевые сэмплы : Да
Интерфейс                                         : Встроенный Win32-интерфейс для Win NT/2000
Обработка зазоров                                 : Добавлено к предыдущему треку
Выходной формат          : Пользовательский кодировщик
Выбранный битрейт        : 128 kBit/s
Качество                 : Высокий
Добавление ID3-тега      : Нет
Утилита сжатия           : C:\Program Files (x86)\Exact Audio Copy\Flac\flac.exe
Дополнительные параметры : -V -7 -T "Genre=%genre%" -T "Artist=%artist%" -T "Title=%title%" -T "Album=%albumtitle%" -T "Date=%year%" -T "Tracknumber=%tracknr%" -T "Comment=%comment%" %source%
TOC извлечённого CD
     Трек |   Старт  | Длительность | Начальный сектор | Конечный сектор
    ---------------------------------------------------------------------
       1  |  0:00.00 |    3:37.60   |           0      |      16334
       2  |  3:37.60 |    4:39.62   |       16335      |      37321
       3  |  8:17.47 |    3:35.42   |       37322      |      53488
       4  | 11:53.14 |    4:04.40   |       53489      |      71828
       5  | 15:57.54 |    3:25.62   |       71829      |      87265
       6  | 19:23.41 |    3:45.16   |       87266      |     104156
       7  | 23:08.57 |    4:03.58   |      104157      |     122439
       8  | 27:12.40 |    4:25.16   |      122440      |     142330
       9  | 31:37.56 |    4:29.09   |      142331      |     162514
      10  | 36:06.65 |    3:58.34   |      162515      |     180398
      11  | 40:05.24 |    2:59.66   |      180399      |     193889
      12  | 43:05.15 |    4:27.52   |      193890      |     213966
      13  | 47:32.67 |    3:18.33   |      213967      |     228849
      14  | 50:51.25 |    3:55.74   |      228850      |     246548
      15  | 54:47.24 |    3:13.31   |      246549      |     261054
      16  | 58:00.55 |    4:37.37   |      261055      |     281866
      17  | 62:38.17 |    3:40.18   |      281867      |     298384
Трек  1
     Имя файла E:\_VIDEO\_seriaЛЫ_\!!!muz\Смысловые галлюцинации - Трудных времён песни [2xCD] (2016)\CD 1 Смысловые галлюцинации\01 Зверь 2.wav
     Длина предзазора  0:00:02.00
     Пиковый уровень 99.9 %
     Скорость извлечения 1.0 X
     Качество трека 99.9 %
     CRC теста 86848AD3
     CRC копии 86848AD3
     Трек не обнаружен в базе AccurateRip
     Копирование... OK
Трек  2
     Имя файла E:\_VIDEO\_seriaЛЫ_\!!!muz\Смысловые галлюцинации - Трудных времён песни [2xCD] (2016)\CD 1 Смысловые галлюцинации\02 Розовые Очки.wav
     Пиковый уровень 98.8 %
     Скорость извлечения 1.2 X
     Качество трека 99.9 %
     CRC теста 25E6B8AE
     CRC копии 25E6B8AE
     Трек не обнаружен в базе AccurateRip
     Копирование... OK
Трек  3
     Имя файла E:\_VIDEO\_seriaЛЫ_\!!!muz\Смысловые галлюцинации - Трудных времён песни [2xCD] (2016)\CD 1 Смысловые галлюцинации\03 Охотники.wav
     Пиковый уровень 98.8 %
     Скорость извлечения 1.4 X
     Качество трека 100.0 %
     CRC теста F2116C1D
     CRC копии F2116C1D
     Трек не обнаружен в базе AccurateRip
     Копирование... OK
Трек  4
     Имя файла E:\_VIDEO\_seriaЛЫ_\!!!muz\Смысловые галлюцинации - Трудных времён песни [2xCD] (2016)\CD 1 Смысловые галлюцинации\04 Демоны.wav
     Пиковый уровень 98.8 %
     Скорость извлечения 1.5 X
     Качество трека 100.0 %
     CRC теста D9E97D21
     CRC копии D9E97D21
     Трек не обнаружен в базе AccurateRip
     Копирование... OK
Трек  5
     Имя файла E:\_VIDEO\_seriaЛЫ_\!!!muz\Смысловые галлюцинации - Трудных времён песни [2xCD] (2016)\CD 1 Смысловые галлюцинации\05 Мысленный Волк.wav
     Пиковый уровень 98.8 %
     Скорость извлечения 1.4 X
     Качество трека 99.9 %
     CRC теста 12FCE964
     CRC копии 12FCE964
     Трек не обнаружен в базе AccurateRip
     Копирование... OK
Трек  6
     Имя файла E:\_VIDEO\_seriaЛЫ_\!!!muz\Смысловые галлюцинации - Трудных времён песни [2xCD] (2016)\CD 1 Смысловые галлюцинации\06 Первый День Осени.wav
     Пиковый уровень 98.8 %
     Скорость извлечения 1.7 X
     Качество трека 100.0 %
     CRC теста 89A7935B
     CRC копии 89A7935B
     Трек не обнаружен в базе AccurateRip
     Копирование... OK
Трек  7
     Имя файла E:\_VIDEO\_seriaЛЫ_\!!!muz\Смысловые галлюцинации - Трудных времён песни [2xCD] (2016)\CD 1 Смысловые галлюцинации\07 Бездна.wav
     Пиковый уровень 98.8 %
     Скорость извлечения 1.8 X
     Качество трека 100.0 %
     CRC теста CDB91C60
     CRC копии CDB91C60
     Трек не обнаружен в базе AccurateRip
     Копирование... OK
Трек  8
     Имя файла E:\_VIDEO\_seriaЛЫ_\!!!muz\Смысловые галлюцинации - Трудных времён песни [2xCD] (2016)\CD 1 Смысловые галлюцинации\08 Зачем Топтать Мою Любовь.wav
     Пиковый уровень 98.8 %
     Скорость извлечения 1.9 X
     Качество трека 100.0 %
     CRC теста 876C2D83
     CRC копии 876C2D83
     Трек не обнаружен в базе AccurateRip
     Копирование... OK
Трек  9
     Имя файла E:\_VIDEO\_seriaЛЫ_\!!!muz\Смысловые галлюцинации - Трудных времён песни [2xCD] (2016)\CD 1 Смысловые галлюцинации\09 Без стюардесс.wav
     Пиковый уровень 98.8 %
     Скорость извлечения 1.9 X
     Качество трека 100.0 %
     CRC теста CCE312BF
     CRC копии CCE312BF
     Трек не обнаружен в базе AccurateRip
     Копирование... OK
Трек 10
     Имя файла E:\_VIDEO\_seriaЛЫ_\!!!muz\Смысловые галлюцинации - Трудных времён песни [2xCD] (2016)\CD 1 Смысловые галлюцинации\10 Всё в порядке.wav
     Пиковый уровень 98.8 %
     Скорость извлечения 2.0 X
     Качество трека 100.0 %
     CRC теста A4F2AF55
     CRC копии A4F2AF55
     Трек не обнаружен в базе AccurateRip
     Копирование... OK
Трек 11
     Имя файла E:\_VIDEO\_seriaЛЫ_\!!!muz\Смысловые галлюцинации - Трудных времён песни [2xCD] (2016)\CD 1 Смысловые галлюцинации\11 Больше чем жизнь.wav
     Пиковый уровень 98.8 %
     Скорость извлечения 2.0 X
     Качество трека 100.0 %
     CRC теста BAD2F3FD
     CRC копии BAD2F3FD
     Трек не обнаружен в базе AccurateRip
     Копирование... OK
Трек 12
     Имя файла E:\_VIDEO\_seriaЛЫ_\!!!muz\Смысловые галлюцинации - Трудных времён песни [2xCD] (2016)\CD 1 Смысловые галлюцинации\12 Апрель.wav
     Пиковый уровень 98.8 %
     Скорость извлечения 2.2 X
     Качество трека 100.0 %
     CRC теста A02E90AD
     CRC копии A02E90AD
     Трек не обнаружен в базе AccurateRip
     Копирование... OK
Трек 13
     Имя файла E:\_VIDEO\_seriaЛЫ_\!!!muz\Смысловые галлюцинации - Трудных времён песни [2xCD] (2016)\CD 1 Смысловые галлюцинации\13 Вечно Молодой.wav
     Пиковый уровень 98.8 %
     Скорость извлечения 2.1 X
     Качество трека 100.0 %
     CRC теста 3C260D26
     CRC копии 3C260D26
     Трек не обнаружен в базе AccurateRip
     Копирование... OK
Трек 14
     Имя файла E:\_VIDEO\_seriaЛЫ_\!!!muz\Смысловые галлюцинации - Трудных времён песни [2xCD] (2016)\CD 1 Смысловые галлюцинации\14 Всё будет волшебно.wav
     Пиковый уровень 98.8 %
     Скорость извлечения 2.2 X
     Качество трека 100.0 %
     CRC теста 49FB14AA
     CRC копии 49FB14AA
     Трек не обнаружен в базе AccurateRip
     Копирование... OK
Трек 15
     Имя файла E:\_VIDEO\_seriaЛЫ_\!!!muz\Смысловые галлюцинации - Трудных времён песни [2xCD] (2016)\CD 1 Смысловые галлюцинации\15 Разум когда-нибудь победит (feat. оркестр B-A-C-H).wav
     Пиковый уровень 98.8 %
     Скорость извлечения 2.2 X
     Качество трека 100.0 %
     CRC теста D7FF879F
     CRC копии D7FF879F
     Трек не обнаружен в базе AccurateRip
     Копирование... OK
Трек 16
     Имя файла E:\_VIDEO\_seriaЛЫ_\!!!muz\Смысловые галлюцинации - Трудных времён песни [2xCD] (2016)\CD 1 Смысловые галлюцинации\16 Вечность встанет с нами рядом (feat. оркестр B-A-C-H).wav
     Пиковый уровень 98.8 %
     Скорость извлечения 2.4 X
     Качество трека 100.0 %
     CRC теста 3D6C70BA
     CRC копии 3D6C70BA
     Трек не обнаружен в базе AccurateRip
     Копирование... OK
Трек 17
     Имя файла E:\_VIDEO\_seriaЛЫ_\!!!muz\Смысловые галлюцинации - Трудных времён песни [2xCD] (2016)\CD 1 Смысловые галлюцинации\17 Последнее признание.wav
     Пиковый уровень 98.8 %
     Скорость извлечения 2.4 X
     Качество трека 100.0 %
     CRC теста 2F15512D
     CRC копии 2F15512D
     Трек не обнаружен в базе AccurateRip
     Копирование... OK
Ни одного трека нет в базе AccurateRip
Ошибок не произошло
Конец отчёта
==== Контрольная сумма отчёта 020BCFE72104408F74ECA2C447AAD160FC57E5A329A6A74E6C2BAABABD23D1BC ====
01. Напоминай (2:50)
02. Хочется жить (3:44)
03. Мама, мы все сошли с ума (3:43)
04. Я люблю (2:43)
05. Белое безмолвие (3:44)
06. Мгновения (2:48)
07. Туман (3:24)
08. Я наконец-то всем доволен (feat. Александр Сычёв) (4:39)
09. Последний герой (3:37)
10. Космос наш (feat. Юрий Гагарин) (3:26)
Exact Audio Copy V1.0 beta 3 from 29. August 2011
Отчёт EAC об извлечении, выполненном 12. марта 2017, 10:46
Сергей Бобунец / Трудных времён песни (CD 2)
Дисковод: PIONEER DVD-RW  DVR-218L   Adapter: 0  ID: 0
Режим чтения                 : Достоверность
Использование точного потока : Да
Отключение кэша аудио        : Да
Использование указателей C2  : Нет
Коррекция смещения при чтении                     : 6
Способность читать области Lead-in и Lead-out     : Нет
Заполнение пропущенных сэмплов тишиной            : Да
Удаление блоков с тишиной в начале и конце        : Нет
При вычислениях CRC использовались нулевые сэмплы : Да
Интерфейс                                         : Встроенный Win32-интерфейс для Win NT/2000
Обработка зазоров                                 : Добавлено к предыдущему треку
Выходной формат          : Пользовательский кодировщик
Выбранный битрейт        : 128 kBit/s
Качество                 : Высокий
Добавление ID3-тега      : Нет
Утилита сжатия           : C:\Program Files (x86)\Exact Audio Copy\Flac\flac.exe
Дополнительные параметры : -V -7 -T "Genre=%genre%" -T "Artist=%artist%" -T "Title=%title%" -T "Album=%albumtitle%" -T "Date=%year%" -T "Tracknumber=%tracknr%" -T "Comment=%comment%" %source%
TOC извлечённого CD
     Трек |   Старт  | Длительность | Начальный сектор | Конечный сектор
    ---------------------------------------------------------------------
       1  |  0:00.00 |    2:49.50   |           0      |      12724
       2  |  2:49.50 |    3:44.08   |       12725      |      29532
       3  |  6:33.58 |    3:42.41   |       29533      |      46223
       4  | 10:16.24 |    2:43.34   |       46224      |      58482
       5  | 12:59.58 |    3:43.61   |       58483      |      75268
       6  | 16:43.44 |    2:48.02   |       75269      |      87870
       7  | 19:31.46 |    3:24.25   |       87871      |     103195
       8  | 22:55.71 |    4:38.50   |      103196      |     124095
       9  | 27:34.46 |    3:36.51   |      124096      |     140346
      10  | 31:11.22 |    3:25.55   |      140347      |     155776
Трек  1
     Имя файла E:\_VIDEO\_seriaЛЫ_\!!!muz\Смысловые галлюцинации - Трудных времён песни [2xCD] (2016)\CD 2 Сергей Бобунец\01 Напоминай.wav
     Длина предзазора  0:00:02.00
     Пиковый уровень 98.8 %
     Скорость извлечения 0.9 X
     Качество трека 99.9 %
     CRC теста 2F348548
     CRC копии 2F348548
     Трек не обнаружен в базе AccurateRip
     Копирование... OK
Трек  2
     Имя файла E:\_VIDEO\_seriaЛЫ_\!!!muz\Смысловые галлюцинации - Трудных времён песни [2xCD] (2016)\CD 2 Сергей Бобунец\02 Хочется жить.wav
     Пиковый уровень 98.8 %
     Скорость извлечения 1.1 X
     Качество трека 99.9 %
     CRC теста 1EAC9CEF
     CRC копии 1EAC9CEF
     Трек не обнаружен в базе AccurateRip
     Копирование... OK
Трек  3
     Имя файла E:\_VIDEO\_seriaЛЫ_\!!!muz\Смысловые галлюцинации - Трудных времён песни [2xCD] (2016)\CD 2 Сергей Бобунец\03 Мама, мы все сошли с ума.wav
     Пиковый уровень 98.8 %
     Скорость извлечения 1.4 X
     Качество трека 100.0 %
     CRC теста 627D6504
     CRC копии 627D6504
     Трек не обнаружен в базе AccurateRip
     Копирование... OK
Трек  4
     Имя файла E:\_VIDEO\_seriaЛЫ_\!!!muz\Смысловые галлюцинации - Трудных времён песни [2xCD] (2016)\CD 2 Сергей Бобунец\04 Я люблю.wav
     Пиковый уровень 99.6 %
     Скорость извлечения 1.4 X
     Качество трека 100.0 %
     CRC теста B120FF5D
     CRC копии B120FF5D
     Трек не обнаружен в базе AccurateRip
     Копирование... OK
Трек  5
     Имя файла E:\_VIDEO\_seriaЛЫ_\!!!muz\Смысловые галлюцинации - Трудных времён песни [2xCD] (2016)\CD 2 Сергей Бобунец\05 Белое безмолвие.wav
     Пиковый уровень 98.8 %
     Скорость извлечения 1.5 X
     Качество трека 100.0 %
     CRC теста EB0EFAAF
     CRC копии EB0EFAAF
     Трек не обнаружен в базе AccurateRip
     Копирование... OK
Трек  6
     Имя файла E:\_VIDEO\_seriaЛЫ_\!!!muz\Смысловые галлюцинации - Трудных времён песни [2xCD] (2016)\CD 2 Сергей Бобунец\06 Мгновение.wav
     Пиковый уровень 99.4 %
     Скорость извлечения 1.5 X
     Качество трека 100.0 %
     CRC теста C9EFBD78
     CRC копии C9EFBD78
     Трек не обнаружен в базе AccurateRip
     Копирование... OK
Трек  7
     Имя файла E:\_VIDEO\_seriaЛЫ_\!!!muz\Смысловые галлюцинации - Трудных времён песни [2xCD] (2016)\CD 2 Сергей Бобунец\07 Туман.wav
     Пиковый уровень 98.8 %
     Скорость извлечения 1.6 X
     Качество трека 100.0 %
     CRC теста 353E754D
     CRC копии 353E754D
     Трек не обнаружен в базе AccurateRip
     Копирование... OK
Трек  8
     Имя файла E:\_VIDEO\_seriaЛЫ_\!!!muz\Смысловые галлюцинации - Трудных времён песни [2xCD] (2016)\CD 2 Сергей Бобунец\08 Я наконец-то всем доволен (feat. Александр Сычёв).wav
     Пиковый уровень 100.0 %
     Скорость извлечения 1.8 X
     Качество трека 100.0 %
     CRC теста DC523A95
     CRC копии DC523A95
     Трек не обнаружен в базе AccurateRip
     Копирование... OK
Трек  9
     Имя файла E:\_VIDEO\_seriaЛЫ_\!!!muz\Смысловые галлюцинации - Трудных времён песни [2xCD] (2016)\CD 2 Сергей Бобунец\09 Последний герой.wav
     Пиковый уровень 98.8 %
     Скорость извлечения 1.8 X
     Качество трека 100.0 %
     CRC теста 3CCDD8E1
     CRC копии 3CCDD8E1
     Трек не обнаружен в базе AccurateRip
     Копирование... OK
Трек 10
     Имя файла E:\_VIDEO\_seriaЛЫ_\!!!muz\Смысловые галлюцинации - Трудных времён песни [2xCD] (2016)\CD 2 Сергей Бобунец\10 Космос наш (feat. Юрий Гагарин).wav
     Пиковый уровень 100.0 %
     Скорость извлечения 1.9 X
     Качество трека 100.0 %
     CRC теста FC339752
     CRC копии FC339752
     Трек не обнаружен в базе AccurateRip
     Копирование... OK
Ни одного трека нет в базе AccurateRip
Ошибок не произошло
Конец отчёта
==== Контрольная сумма отчёта 6D59C6363D607E2BB9E71719A618925CD2167858551B70E27530969F009FB5FF ====
Вне форума Profile PM
Вверх
Показать сообщения:    
Ответить на тему Вверх
Список форумов ivbox.me » Музыка Lossless » Русский рок » [Rock] Смысловые галлюцинации (Сергей Бобунец) / Трудных времён песни (2016), FLAC (tracks)

Текущее время: 21-Июл 11:25

Часовой пояс: GMT + 3


Вы не можете начинать темы
Вы не можете отвечать на сообщения
Вы не можете редактировать свои сообщения
Вы не можете удалять свои сообщения
Вы не можете голосовать в опросах
Вы не можете прикреплять файлы к сообщениям
Вы не можете скачивать файлы