Loading...
Error
Фрилич! «КАЧАЙ И РАЗДАВАЙ». Скачанное не засчитывается!
Регистрация
Имя:     Пароль:  
Забыли пароль?

Форсаж 8 / The Fate of the Furious [2017 г., боевик, триллер, криминал, приключения] BDRip 720p

Список форумов ivbox.me » HD видео » Зарубежные фильмы (HD качество) » Форсаж 8 / The Fate of the Furious [2017 г., боевик, триллер, криминал, приключения] BDRip 720p
Ответить на тему Вниз
Статистика раздачи
Скачали: [ 19 ]
 
     
Сделать раздачу рекомендованной:  Подтвердите 
 
Автор Сообщение

saq

Сид-бонус: 118393

 1 МБ/с   100 КБ/с

Стаж: 7 лет 8 месяцев

Сообщений: 12815

Откуда: Лежнево

Награды: Нет

Рейтинг: 3,83
Скачано:  2,897 ТБ
Отдано:  3,423 ТБ
на своих 2,288 ТБ
бонус:  5,394 ТБ
Доступно 34,122 ТБ

post 08-Июн-2017 07:08 (4 месяца 10 дней назад)

Quote

Форсаж 8 / The Fate of the Furious


Год выпуска: 2017
Страна: США
Жанр: боевик, триллер, криминал, приключения
Продолжительность: 02:15:57
Перевод: Профессиональный (полное дублирование) Лицензия

Режиссер: Ф. Гэри Грей

В ролях: Вин Дизель, Дуэйн Джонсон, Джейсон Стэйтем, Мишель Родригес, Тайриз Гибсон, Лудакрис, Натали Эммануэль, Курт Рассел, Скотт Иствуд, Шарлиз Терон

Описание: Пристегните ремни — гонка продолжается. Гавана, Берлин, Нью-Йорк — для самой крутой команды в мире нет ничего невозможного, пока они вместе. Но когда на их пути окажется одна из самых красивых женщин на планете и по совместительству королева киберпреступности, дороги друзей разойдутся.
IMDB Rate
Качество: BDRip 720p
Формат: MKV
Видео: MPEG-4 AVC, 1280x536, 5000 Kbit/s, 23.976 fps
Аудио #01: 48 kHz, DTS, 5.1, 768 Kbps | Дублированный | RUS |
Аудио #02: 48 kHz, AC3, 5.1, 448 Kbps | Дублированный | RUS |
Аудио #03: 48 kHz, AC3, 5.1, 640 Kbps | Оригинал | ENG |
Субтитры: Русские (forced, full), английские


Вне форума Profile PM

saq

Сид-бонус: 118393

 1 МБ/с   100 КБ/с

Стаж: 7 лет 8 месяцев

Сообщений: 12815

Откуда: Лежнево

Награды: Нет

Рейтинг: 3,83
Скачано:  2,897 ТБ
Отдано:  3,423 ТБ
на своих 2,288 ТБ
бонус:  5,394 ТБ
Доступно 34,122 ТБ

post 03-Июл-2017 19:17 (спустя 25 дней, 3 месяца 15 дней назад)

Quote

BDRip 720p

________________________________
Вне форума Profile PM

Yohanson

Сид-бонус: 70531

Стаж: 2 года 2 месяца

Сообщений: 1

Награды: Нет

Рейтинг: Нет
Скачано:  15,23 ГБ
Отдано:  2,831 ТБ
на своих 0 Б
бонус:  1,695 ТБ
Доступно 15,069 ТБ

post 07-Июл-2017 21:03 (спустя 4 дня, 3 месяца 11 дней назад)

Quote

Русский звук отсутствует
Вне форума Profile PM

Михалыч

Сид-бонус: 1221392

 2 МБ/с   2 МБ/с

Стаж: 10 лет

Сообщений: 5554

Откуда: Шуя-город

Награды: Нет

Рейтинг: 861,31
Скачано:  1,32 ТБ
Отдано:  610,782 ТБ
на своих 489,163 ТБ
бонус:  37,158 ТБ
Доступно 3,7 ПБ

post 07-Июл-2017 22:01 (спустя 57 минут, 3 месяца 11 дней назад)

Quote

Yohanson
Ты, наверное, просто не нашёл
General
Unique ID : 182987419202542683487719904527383436498 (0x89AA18527FB0EA75868556858CFE9CD2)
Complete name : F:\Video\The.Fate.of.the.Furious.2017.BDRip.720p.ExKinoRay.mkv
Format : Matroska
Format version : Version 4 / Version 2
File size : 7.02 GiB
Duration : 2 h 15 min
Overall bit rate : 7 393 kb/s
Encoded date : UTC 2017-06-29 06:53:47
Writing application : mkvmerge v13.0.0 ('The Juggler') 64bit
Writing library : libebml v1.3.4 + libmatroska v1.4.5

Video
ID : 1
Format : AVC
Format/Info : Advanced Video Codec
Format profile : High@L4.1
Format settings, CABAC : Yes
Format settings, ReFrames : 12 frames
Codec ID : V_MPEG4/ISO/AVC
Duration : 2 h 15 min
Bit rate : 5 500 kb/s
Width : 1 280 pixels
Height : 536 pixels
Display aspect ratio : 2.40:1
Frame rate mode : Constant
Frame rate : 23.976 (24000/1001) FPS
Color space : YUV
Chroma subsampling : 4:2:0
Bit depth : 8 bits
Scan type : Progressive
Bits/(Pixel*Frame) : 0.334
Stream size : 5.22 GiB (74%)
Writing library : x264 core 148 r2665kMod a01e339
Encoding settings : cabac=1 / ref=12 / deblock=1:-3:-3 / analyse=0x3:0x133 / me=umh / subme=11 / psy=1 / fade_compensate=0.00 / psy_rd=1.05:0.00 / mixed_ref=1 / me_range=32 / chroma_me=1 / trellis=2 / 8x8dct=1 / cqm=0 / deadzone=21,11 / fast_pskip=0 / chroma_qp_offset=-2 / threads=17 / lookahead_threads=2 / sliced_threads=0 / nr=0 / decimate=0 / interlaced=0 / bluray_compat=0 / constrained_intra=0 / fgo=0 / bframes=8 / b_pyramid=2 / b_adapt=2 / b_bias=0 / direct=3 / weightb=1 / open_gop=0 / weightp=2 / keyint=240 / keyint_min=24 / scenecut=40 / intra_refresh=0 / rc=2pass / mbtree=0 / bitrate=5500 / ratetol=1.0 / qcomp=0.70 / qpmin=0 / qpmax=69 / qpstep=4 / cplxblur=20.0 / qblur=0.5 / ip_ratio=1.20 / pb_ratio=1.20 / aq=3:0.85
Language : English
Default : Yes
Forced : No

Audio #1
ID : 2
Format : AC-3
Format/Info : Audio Coding 3
Format settings, Endianness : Big
Codec ID : A_AC3
Duration : 2 h 15 min
Bit rate mode : Constant
Bit rate : 384 kb/s
Channel(s) : 6 channels
Channel positions : Front: L C R, Side: L R, LFE
Sampling rate : 48.0 kHz
Frame rate : 31.250 FPS (1536 spf)
Bit depth : 16 bits
Compression mode : Lossy
Stream size : 373 MiB (5%)
Title : iTunes
Language : Russian
Service kind : Complete Main
Default : No
Forced : No

Audio #2
ID : 3
Format : DTS
Format/Info : Digital Theater Systems
Mode : 16
Format settings, Endianness : Big
Codec ID : A_DTS
Duration : 2 h 15 min
Bit rate mode : Constant
Bit rate : 1 509 kb/s
Channel(s) : 6 channels
Channel positions : Front: L C R, Side: L R, LFE
Sampling rate : 48.0 kHz
Frame rate : 93.750 FPS (512 spf)
Bit depth : 24 bits
Compression mode : Lossy
Stream size : 1.43 GiB (20%)
Title : Original
Language : English
Default : Yes
Forced : No

Text #1
ID : 4
Format : UTF-8
Codec ID : S_TEXT/UTF8
Codec ID/Info : UTF-8 Plain Text
Duration : 2 h 7 min
Bit rate : 1 b/s
Count of elements : 43
Stream size : 1.57 KiB (0%)
Title : Forced
Language : Russian
Default : Yes
Forced : No

Text #2
ID : 5
Format : UTF-8
Codec ID : S_TEXT/UTF8
Codec ID/Info : UTF-8 Plain Text
Duration : 2 h 14 min
Bit rate : 76 b/s
Count of elements : 1513
Stream size : 75.9 KiB (0%)
Title : Full
Language : Russian
Default : No
Forced : No

Text #3
ID : 6
Format : UTF-8
Codec ID : S_TEXT/UTF8
Codec ID/Info : UTF-8 Plain Text
Duration : 2 h 3 min
Bit rate : 52 b/s
Count of elements : 1516
Stream size : 47.2 KiB (0%)
Title : Full
Language : English
Default : No
Forced : No

Text #4
ID : 7
Format : UTF-8
Codec ID : S_TEXT/UTF8
Codec ID/Info : UTF-8 Plain Text
Duration : 2 h 4 min
Bit rate : 59 b/s
Count of elements : 1841
Stream size : 54.0 KiB (0%)
Title : SDH
Language : English
Default : No
Forced : No

Menu
00:00:00.000 : en:00:00:00.000
00:13:08.913 : en:00:13:08.913
00:20:30.771 : en:00:20:30.771
00:26:38.639 : en:00:26:38.639
00:32:26.778 : en:00:32:26.778
00:36:40.573 : en:00:36:40.573
00:43:35.613 : en:00:43:35.613
00:47:45.780 : en:00:47:45.780
00:56:00.732 : en:00:56:00.732
01:04:08.303 : en:01:04:08.303
01:09:08.061 : en:01:09:08.061
01:13:24.275 : en:01:13:24.275
01:21:25.714 : en:01:21:25.714
01:29:29.948 : en:01:29:29.948
01:35:12.457 : en:01:35:12.457
01:39:55.781 : en:01:39:55.781
01:45:00.711 : en:01:45:00.711
01:53:01.858 : en:01:53:01.858
02:01:51.262 : en:02:01:51.262
02:06:45.097 : en:02:06:45.097

________________________________
Поздно или рано счастья не бывает,
Счастье - если что-то вовремя пришло.
Вне форума Profile PM

saq

Сид-бонус: 118393

 1 МБ/с   100 КБ/с

Стаж: 7 лет 8 месяцев

Сообщений: 12815

Откуда: Лежнево

Награды: Нет

Рейтинг: 3,83
Скачано:  2,897 ТБ
Отдано:  3,423 ТБ
на своих 2,288 ТБ
бонус:  5,394 ТБ
Доступно 34,122 ТБ

post 12-Авг-2017 21:59 (спустя 1 месяц 4 дня, 2 месяца 6 дней назад)

Quote

Лицензия .

________________________________
Вне форума Profile PM
Вверх
Показать сообщения:    
Ответить на тему Вверх
Список форумов ivbox.me » HD видео » Зарубежные фильмы (HD качество) » Форсаж 8 / The Fate of the Furious [2017 г., боевик, триллер, криминал, приключения] BDRip 720p

Текущее время: 18-Окт 23:20

Часовой пояс: GMT + 3


Вы не можете начинать темы
Вы не можете отвечать на сообщения
Вы не можете редактировать свои сообщения
Вы не можете удалять свои сообщения
Вы не можете голосовать в опросах
Вы не можете прикреплять файлы к сообщениям
Вы не можете скачивать файлы