Loading...
Error
Фрилич! «КАЧАЙ И РАЗДАВАЙ». Скачанное не засчитывается!
Регистрация
Имя:     Пароль:  
Забыли пароль?

Пираты Карибского моря: Мертвецы не рассказывают сказки 3D / Pirates of the Caribbean: Dead Men Tell No Tales 3D [2017 г., Фэнтези, Боевик, Комедия, Приключения] Half OverUnder / Вертикальная анаморфная стереопара

Список форумов ivbox.me » 3D видео » Кинофильмы (3D) » Пираты Карибского моря: Мертвецы не рассказывают сказки 3D / Pirates of the Caribbean: Dead Men Tell No Tales 3D [2017 г., Фэнтези, Боевик, Комедия, Приключения] Half OverUnder / Вертикальная анаморфная стереопара
Ответить на тему Вниз
Статистика раздачи
Качают: [ 1 ]
Скачали: [ 4 ]
 
     
Сделать раздачу рекомендованной:  Подтвердите 
 
Автор Сообщение

alex@ndr

Сид-бонус: 69761
Сид-бонус: 69761

 10 МБ/с   10 МБ/с

Стаж: 8 лет 10 месяцев

Сообщений: 397

Награды: Нет

Рейтинг: 75,77
Скачано:  316,42 ГБ
Отдано:  12,671 ТБ
на своих 10,329 ТБ
бонус:  420,87 ГБ
Доступно 77,729 ТБ

post 24-Сен-2017 09:12 (2 месяца 24 дня назад)

Quote



Пираты Карибского моря: Мертвецы не рассказывают сказки / Pirates of the Caribbean: Dead Men Tell No Tales




Год выпуска: 2017
Страна: США (Walt Disney Pictures, Infinitum Nihil Production, Jerry Bruckheimer Films)
Жанр: Фэнтези, Боевик, Комедия, Приключения
Продолжительность: 02:09:07
Перевод: Профессиональный (полное дублирование) Лицензия
Режиссер: Хоаким Роннинг, Эспен Сандберг
В ролях: Джонни Депп, Хавьер Бардем, Джеффри Раш, Брентон Туэйтс, Кая Скоделарио, Кевин МакНэлли, Голшифте Фарахани, Дэвид Уэнэм,Стивен Грэм, Энгус Барнетт
Описание: Исчерпавший свою удачу капитан Джек Воробей обнаруживает, что за ним охотится его старый неприятель, ужасный капитан Салазар и его призрачные пираты. Они только что сбежали из Дьявольского треугольника и намерены уничтожить всех пиратов, включая Джека. Поможет спастись лишь могущественный артефакт — трезубец Посейдона, который дарует своему обладателю полный контроль над морями
Доп. информация:
Премьера: 11 мая 2017 (25 мая 2017)
Релиз на Blu-Ray (DVD) (Россия): 19 сентября 2017
Бюджет: $230 000 000
Кассовые сборы: $794 051 478
Качество: BDRip 1080p
Формат: MKV Half OverUnder / Вертикальная анаморфная стереопара
Порядок ракурсов: левый ракурс первый
Разрешение: 1080p
Видео кодек: AVC
Аудио кодек: AC3
Видео: 1920х1080p / 23,976 fps / 14.0 Mbps
Аудио: #1 - Русский / AC3 / 48 KHz / 5.1 ch / 640 Kbps (Дубляж - BD Eur)
#2 - Украинский / AC3 / 48 KHz / 5.1 ch / 640 Kbps (Дубляж)
#3 - Английский / AC3 / 48 KHz / 5.1 ch / 640 Kbps (Original - BD 3D)
Субтитры: #1 - Русские Форсированные (включены по умолчанию)
#2 - Русские Полные
#3 - Украинские Форсированные
#4 - English Full
#5 - English SDH

General
Unique ID : 185582774193632530159147893640335513352 (0x8B9DF133E6AB2C43BDA57FD13718D708)
Complete name : D:PiratesOfTheCaribbean5(2017)3D-halfOU(Ash61)PiratesOfTheCaribbean5(2017)3D-halfOU(Ash61).mkv
Format : Matroska
Format version : Version 2
File size : 14.4 GiB
Duration : 2 h 9 min
Overall bit rate : 15.9 Mb/s
Movie name : Пираты Карибского моря: Мертвецы не рассказывают сказки / Pirates of the Caribbean: Dead Men Tell No Tales (2017) в 3Д
Encoded date : UTC 2017-09-22 14:17:55
Writing application : mkvmerge v5.8.0 ('No Sleep / Pillow') built on Sep 2 2012 15:37:04
Writing library : libebml v1.2.3 + libmatroska v1.3.0

Video
ID : 1
Format : AVC
Format/Info : Advanced Video Codec
Format profile : High@L4.1
Format settings, CABAC : Yes
Format settings, RefFrames : 4 frames
Codec ID : V_MPEG4/ISO/AVC
Duration : 2 h 9 min
Bit rate : 14.0 Mb/s
Width : 1 920 pixels
Height : 1 080 pixels
Display aspect ratio : 16:9
Frame rate mode : Constant
Frame rate : 23.976 (24000/1001) FPS
Color space : YUV
Chroma subsampling : 4:2:0
Bit depth : 8 bits
Scan type : Progressive
Bits/(Pixel*Frame) : 0.282
Stream size : 12.3 GiB (86%)
Title : BDRip by Ash61
Writing library : x264 core 146 r2538 121396c
Encoding settings : cabac=1 / ref=4 / deblock=1:-3:-3 / analyse=0x3:0x113 / me=umh / subme=10 / psy=1 / psy_rd=1.00:0.00 / mixed_ref=1 / me_range=32 / chroma_me=1 / trellis=2 / 8x8dct=1 / cqm=0 / deadzone=21,11 / fast_pskip=0 / chroma_qp_offset=-2 / threads=12 / lookahead_threads=2 / sliced_threads=0 / nr=0 / decimate=0 / interlaced=0 / bluray_compat=0 / constrained_intra=0 / bframes=9 / b_pyramid=2 / b_adapt=2 / b_bias=0 / direct=3 / weightb=1 / open_gop=0 / weightp=2 / keyint=250 / keyint_min=23 / scenecut=40 / intra_refresh=0 / rc=2pass / mbtree=0 / bitrate=14000 / ratetol=1.0 / qcomp=0.70 / qpmin=0 / qpmax=69 / qpstep=4 / cplxblur=20.0 / qblur=0.5 / frame-packing=4 / ip_ratio=1.40 / pb_ratio=1.30 / aq=1:0.70
Language : English
Default : Yes
Forced : No

Audio #1
ID : 2
Format : AC-3
Format/Info : Audio Coding 3
Format settings, Endianness : Big
Codec ID : A_AC3
Duration : 2 h 9 min
Bit rate mode : Constant
Bit rate : 640 kb/s
Channel(s) : 6 channels
Channel positions : Front: L C R, Side: L R, LFE
Sampling rate : 48.0 kHz
Frame rate : 31.250 FPS (1536 SPF)
Bit depth : 16 bits
Compression mode : Lossy
Stream size : 591 MiB (4%)
Title : Дубляж - BD Eur
Language : Russian
Service kind : Complete Main
Default : Yes
Forced : No

Audio #2
ID : 3
Format : AC-3
Format/Info : Audio Coding 3
Format settings, Endianness : Big
Codec ID : A_AC3
Duration : 2 h 9 min
Bit rate mode : Constant
Bit rate : 640 kb/s
Channel(s) : 6 channels
Channel positions : Front: L C R, Side: L R, LFE
Sampling rate : 48.0 kHz
Frame rate : 31.250 FPS (1536 SPF)
Bit depth : 16 bits
Compression mode : Lossy
Stream size : 591 MiB (4%)
Title : Дубляж
Language : Ukrainian
Service kind : Complete Main
Default : No
Forced : No

Audio #3
ID : 4
Format : AC-3
Format/Info : Audio Coding 3
Format settings, Endianness : Big
Codec ID : A_AC3
Duration : 2 h 9 min
Bit rate mode : Constant
Bit rate : 640 kb/s
Channel(s) : 6 channels
Channel positions : Front: L C R, Side: L R, LFE
Sampling rate : 48.0 kHz
Frame rate : 31.250 FPS (1536 SPF)
Bit depth : 16 bits
Compression mode : Lossy
Stream size : 591 MiB (4%)
Title : Original
Language : English
Service kind : Complete Main
Default : No
Forced : No

Text #1
ID : 5
Format : UTF-8
Codec ID : S_TEXT/UTF8
Codec ID/Info : UTF-8 Plain Text
Title : Форсированные
Language : Russian
Default : Yes
Forced : No

Text #2
ID : 6
Format : UTF-8
Codec ID : S_TEXT/UTF8
Codec ID/Info : UTF-8 Plain Text
Title : Полные
Language : Russian
Default : No
Forced : No

Text #3
ID : 7
Format : UTF-8
Codec ID : S_TEXT/UTF8
Codec ID/Info : UTF-8 Plain Text
Title : Форсированные
Language : Ukrainian
Default : No
Forced : No

Text #4
ID : 8
Format : UTF-8
Codec ID : S_TEXT/UTF8
Codec ID/Info : UTF-8 Plain Text
Title : Full
Language : English
Default : No
Forced : No

Text #5
ID : 9
Format : UTF-8
Codec ID : S_TEXT/UTF8
Codec ID/Info : UTF-8 Plain Text
Title : SDH
Language : English
Default : No
Forced : No

Menu
00:00:00.000 : : 1. Проклятие отца / Father's Curse
00:05:49.514 : : 2. «Арестовать его» / "Arrest Him"
00:08:34.221 : : 3. Капитан Салазар / Captain Salazar
00:13:40.820 : : 4. «Помешать ведьме» / "Stop That Witch"
00:16:29.153 : : 5. Сбежавший банк / Runaway Bank
00:22:33.852 : : 6. Невезение / Bad Luck
00:25:19.267 : : 7. «Скрытый в звёздах» / "Hidden In The Stars"
00:28:06.101 : : 8. «Мы свободны» / "We Are Free"
00:31:41.773 : : 9. Кровавая луна / Blood Moon
00:33:44.814 : : 10. «Мы ищем пирата» / "Looking For A Pirate"
00:37:02.052 : : 11. Сокровище Барбоссы / Barbossa's Treasure
00:42:27.710 : : 12. «Последние слова» / "Final Words"
00:49:09.070 : : 13. «Радушие» / "Cordiality"
00:54:00.277 : : 14. Блеф / Bluffing
00:57:19.393 : : 15. «Ближе, чем ты думаешь» / "Closer Than You Think"
01:00:38.717 : : 16. История Салазара / Salazar's Story
01:08:29.939 : : 17. Вражда / Mutiny
01:11:57.020 : : 18. Акулы-зомби / Ghost Sharks
01:16:50.939 : : 19. «Жажда, которую не унять» / "Unscratchable Itch"
01:19:27.470 : : 20. День свадьбы / Wedding Day
01:25:04.806 : : 21. «Просто поверьте ей» / "Just Believe Her"
01:27:42.172 : : 22. «Так ты сирота» / "So You're An Orphan"
01:31:43.788 : : 23. «Спрятаться негде» / "Nowhere To Hide"
01:38:22.813 : : 24. Остров / The Island
01:42:36.774 : : 25. Трезубец Посейдона / Poseidon's Trident
01:47:23.560 : : 26. «Нужно разделить» / "All Must Divide"
01:52:58.688 : : 27. «Я расскажу вам сказку» / "Let Me Tell You A Tale"
01:59:09.934 : : 28. Финальные титры / Credits


Вне форума Profile PM
Вверх
Показать сообщения:    
Ответить на тему Вверх
Список форумов ivbox.me » 3D видео » Кинофильмы (3D) » Пираты Карибского моря: Мертвецы не рассказывают сказки 3D / Pirates of the Caribbean: Dead Men Tell No Tales 3D [2017 г., Фэнтези, Боевик, Комедия, Приключения] Half OverUnder / Вертикальная анаморфная стереопара

Текущее время: 18-Дек 23:05

Часовой пояс: GMT + 3


Вы не можете начинать темы
Вы не можете отвечать на сообщения
Вы не можете редактировать свои сообщения
Вы не можете удалять свои сообщения
Вы не можете голосовать в опросах
Вы не можете прикреплять файлы к сообщениям
Вы не можете скачивать файлы