Loading...
Error
Фрилич! «КАЧАЙ И РАЗДАВАЙ». Скачанное не засчитывается!
Регистрация
Имя:     Пароль:  
Забыли пароль?

[Ballad, Pop, Rock, Soundtrack] 1000% The Best Of The Best Music Collection (2001-2003), FLAC (image + .cue)

Список форумов ivbox.me » Музыка Lossless » [Ballad, Pop, Rock, Soundtrack] 1000% The Best Of The Best Music Collection (2001-2003), FLAC (image + .cue)
Ответить на тему Вниз
Статистика раздачи
Качают: [ 1 ]
Скачали: [ 7 ]
 
     
Сделать раздачу рекомендованной:  Подтвердите 
 
Автор Сообщение

Михалыч

Сид-бонус: 1219287

 2 МБ/с   2 МБ/с

Стаж: 10 лет

Сообщений: 5614

Откуда: Шуя-город

Награды: Нет

Рейтинг: 907,7
Скачано:  1,32 ТБ
Отдано:  641,401 ТБ
на своих 519,782 ТБ
бонус:  37,158 ТБ
Доступно 3,9 ПБ

post 25-Ноя-2017 11:58 (21 день назад)

Quote

1000% The Best Of The Best Music Collection



Страна: All World Издатель (лейбл): Deconstruction
Жанр: Ballad, Pop, Rock, Soundtrack
Год выпуска: 2001-2003
Формат: FLAC (image + .cue)
Трэклист:
01. Scorpions - Wind Of Change
02. Kingdome Come - What Love Can Be
03. Rolling Stones - Angie
04. Eagles - Hotel California (Live)
05. ZZ Top - Rough Boy
06. Deep Purple - Solidier Of Fortune
07. Rainbow - Catch The Rainbow
08. Black Sabbath - Planet Caravan
09. Uriah Heep - Lady In Black
10. Whitsnake - If This Love
11. Dire Straits - Your Latest Trick
12. Wasp - Keep Holding On
13. Status Quo - In The Army Now
14. UFO - Beladonna
15. Nazareth - Love Hearts
16. Queen - Show Must Go On
17. Kansas - Dust In The Wind
Exact Audio Copy V1.1 from 23. June 2015
EAC extraction logfile from 15. August 2017, 19:46
VA / 1000% Gold Rock Ballads Vol. 1 (2002)
Used drive  : PIONEER BD-RW   BDR-208D   Adapter: 1  ID: 0
Read mode               : Secure
Utilize accurate stream : Yes
Defeat audio cache      : Yes
Make use of C2 pointers : No
Read offset correction                      : 667
Overread into Lead-In and Lead-Out          : No
Fill up missing offset samples with silence : Yes
Delete leading and trailing silent blocks   : No
Null samples used in CRC calculations       : Yes
Used interface                              : Native Win32 interface for Win NT & 2000
Used output format              : User Defined Encoder
Selected bitrate                : 128 kBit/s
Quality                         : High
Add ID3 tag                     : No
Command line compressor         : C:\Program Files (x86)\Exact Audio Copy\Flac\flac.exe
Additional command line options : -V -8 -T "Date=%year%" -T "COMMENT=ripped special for Rutracker.org - maximwizer1" -T "Genre=%genre%" %source%
TOC of the extracted CD
     Track |   Start  |  Length  | Start sector | End sector
    ---------------------------------------------------------
        1  |  0:00.00 |  5:12.48 |         0    |    23447
        2  |  5:12.48 |  5:15.54 |     23448    |    47126
        3  | 10:28.27 |  4:31.33 |     47127    |    67484
        4  | 14:59.60 |  5:35.04 |     67485    |    92613
        5  | 20:34.64 |  4:52.16 |     92614    |   114529
        6  | 25:27.05 |  3:13.42 |    114530    |   129046
        7  | 28:40.47 |  6:33.70 |    129047    |   158591
        8  | 35:14.42 |  4:25.23 |    158592    |   178489
        9  | 39:39.65 |  4:37.72 |    178490    |   199336
       10  | 44:17.62 |  4:40.46 |    199337    |   220382
       11  | 48:58.33 |  6:29.15 |    220383    |   249572
       12  | 55:27.48 |  4:05.17 |    249573    |   267964
       13  | 59:32.65 |  3:41.09 |    267965    |   284548
       14  | 63:13.74 |  4:25.33 |    284549    |   304456
       15  | 67:39.32 |  3:52.31 |    304457    |   321887
       16  | 71:31.63 |  4:23.62 |    321888    |   341674
       17  | 75:55.50 |  3:19.38 |    341675    |   356637
Range status and errors
Selected range
     Filename C:\[2002] [V316] VA - 1000% Gold Rock Ballads Vol. 1\VA - 1000% Gold Rock Ballads Vol. 1 (2002).wav
     Peak level 96.6 %
     Extraction speed 8.1 X
     Range quality 100.0 %
     Test CRC 12BBCB5F
     Copy CRC 12BBCB5F
     Copy OK
No errors occurred
AccurateRip summary
Track  1  accurately ripped (confidence 2)  [878A5F36]  (AR v1)
Track  2  accurately ripped (confidence 2)  [BC844442]  (AR v1)
Track  3  accurately ripped (confidence 2)  [9BFBB947]  (AR v1)
Track  4  accurately ripped (confidence 1)  [015E271C]  (AR v1)
Track  5  accurately ripped (confidence 2)  [9DE97408]  (AR v1)
Track  6  accurately ripped (confidence 2)  [8BB80D43]  (AR v1)
Track  7  accurately ripped (confidence 1)  [7B478571]  (AR v1)
Track  8  accurately ripped (confidence 1)  [9B1FA3CB]  (AR v1)
Track  9  cannot be verified as accurate (confidence 1)  [D05AABBD], AccurateRip returned [D7C77ABD]  (AR v2)
Track 10  accurately ripped (confidence 1)  [CCD362A9]  (AR v1)
Track 11  accurately ripped (confidence 1)  [83773F33]  (AR v1)
Track 12  accurately ripped (confidence 1)  [CA795114]  (AR v1)
Track 13  accurately ripped (confidence 1)  [1D1EDF35]  (AR v1)
Track 14  accurately ripped (confidence 1)  [59DDA445]  (AR v1)
Track 15  accurately ripped (confidence 1)  [9D376D22]  (AR v1)
Track 16  accurately ripped (confidence 2)  [C3CB318D]  (AR v1)
Track 17  cannot be verified as accurate (confidence 1)  [A8910B22], AccurateRip returned [EA316CD4]  (AR v2)
15 трек(и) скопированы точно
 2 трек(и) не удалось проверить на точность
Some tracks could not be verified as accurate
End of status report
---- CUETools DB Plugin V2.1.6
[CTDB TOCID: qvbr5oc4.godSeehJrcs2jI4kEo-] found
Submit result: qvbr5oc4.godSeehJrcs2jI4kEo- has been confirmed
Track | CTDB Status
  1   | (1/1) Accurately ripped
  2   | (1/1) Accurately ripped
  3   | (1/1) Accurately ripped
  4   | (1/1) Accurately ripped
  5   | (1/1) Accurately ripped
  6   | (1/1) Accurately ripped
  7   | (1/1) Accurately ripped
  8   | (1/1) Accurately ripped
  9   | (1/1) Accurately ripped
 10   | (1/1) Accurately ripped
 11   | (1/1) Accurately ripped
 12   | (1/1) Accurately ripped
 13   | (1/1) Accurately ripped
 14   | (1/1) Accurately ripped
 15   | (1/1) Accurately ripped
 16   | (1/1) Accurately ripped
 17   | (1/1) Accurately ripped
==== Log checksum 4829627C05A4F7C557338E475E9977358A0D8722651B37CF0EA3F7C4C2BCF322 ====
01. Brayan Adams, Rod Stewart, Sting - All For Love
02. Smokie - What Can I Do
03. Foreigner - I Want To Know What Love Is
04. Chris Rea - The Road To Hell
05. Nick Cave & Kylie Minogue - Where The Wild Roses Grow
06. Guns N' Roses - Don't Cry
07. Bon Jovi - Alway's
08. Aerosmith - Cryin
09. Iggy Pop - In The Deathcar
10. Eric Clapton - Layla
11. Deep Purple - Holy Man
12. Roxette - It Must Have Been Love
13. Richard Marx - Hazard
14. Crash Test Dummies - Mmm... Mmm... Mmm...
15. Soul Asylum - Runway Train
16. Mr. Big - Wild Word
17. Robert Plant - Big Log
Exact Audio Copy V1.1 from 23. June 2015
EAC extraction logfile from 15. August 2017, 20:14
VA / 1000% Gold Rock Ballads Vol. 2 (2002)
Used drive  : PIONEER BD-RW   BDR-208D   Adapter: 1  ID: 0
Read mode               : Secure
Utilize accurate stream : Yes
Defeat audio cache      : Yes
Make use of C2 pointers : No
Read offset correction                      : 667
Overread into Lead-In and Lead-Out          : No
Fill up missing offset samples with silence : Yes
Delete leading and trailing silent blocks   : No
Null samples used in CRC calculations       : Yes
Used interface                              : Native Win32 interface for Win NT & 2000
Used output format              : User Defined Encoder
Selected bitrate                : 128 kBit/s
Quality                         : High
Add ID3 tag                     : No
Command line compressor         : C:\Program Files (x86)\Exact Audio Copy\Flac\flac.exe
Additional command line options : -V -8 -T "Date=%year%" -T "COMMENT=ripped special for Rutracker.org - maximwizer1" -T "Genre=%genre%" %source%
TOC of the extracted CD
     Track |   Start  |  Length  | Start sector | End sector
    ---------------------------------------------------------
        1  |  0:00.00 |  4:41.44 |         0    |    21118
        2  |  4:41.44 |  3:38.11 |     21119    |    37479
        3  |  8:19.55 |  5:06.05 |     37480    |    60434
        4  | 13:25.60 |  4:31.49 |     60435    |    80808
        5  | 17:57.34 |  3:56.30 |     80809    |    98538
        6  | 21:53.64 |  4:42.13 |     98539    |   119701
        7  | 26:36.02 |  5:49.45 |    119702    |   145921
        8  | 32:25.47 |  5:09.72 |    145922    |   169168
        9  | 37:35.44 |  5:11.73 |    169169    |   192566
       10  | 42:47.42 |  4:24.43 |    192567    |   212409
       11  | 47:12.10 |  4:29.08 |    212410    |   232592
       12  | 51:41.18 |  4:19.53 |    232593    |   252070
       13  | 56:00.71 |  5:16.32 |    252071    |   275802
       14  | 61:17.28 |  3:41.61 |    275803    |   292438
       15  | 64:59.14 |  4:23.50 |    292439    |   312213
       16  | 69:22.64 |  3:28.46 |    312214    |   327859
       17  | 72:51.35 |  5:02.68 |    327860    |   350577
Range status and errors
Selected range
     Filename C:\[2002] [V321] VA - 1000% Gold Rock Ballads Vol. 2\VA - 1000% Gold Rock Ballads Vol. 2 (2002).wav
     Peak level 100.0 %
     Extraction speed 8.0 X
     Range quality 100.0 %
     Test CRC B8405FC7
     Copy CRC B8405FC7
     Copy OK
No errors occurred
AccurateRip summary
Track  1  not present in database
Track  2  not present in database
Track  3  not present in database
Track  4  not present in database
Track  5  not present in database
Track  6  not present in database
Track  7  not present in database
Track  8  not present in database
Track  9  not present in database
Track 10  not present in database
Track 11  not present in database
Track 12  not present in database
Track 13  not present in database
Track 14  not present in database
Track 15  not present in database
Track 16  not present in database
Track 17  not present in database
None of the tracks are present in the AccurateRip database
End of status report
---- CUETools DB Plugin V2.1.6
[CTDB TOCID: GssW2Fp4GnL74HBj8ALHmofNRNQ-] disk not present in database
Submit result: GssW2Fp4GnL74HBj8ALHmofNRNQ- has been uploaded
==== Log checksum 50EA818EA33CFE4FF0789EF1B99EA9F687012BA54C76B4AF0A3537F4DD110D57 ====
01. Scorpions - When The Smoke Is Going Down
02. Reamonn - Star
03. Robbie Williams - Feel
04. Ozzy Osbourne - Dreamer
05. Morten Harket - A Kind Of An Christmas Card
06. Avril Lavigne - I'm With You
07. Roxette - Breathe
08. The Rolling Stones - Angie
09. Groove Coverage - God Id A Girl
10. Garbage - Drive You Home
11. UFO - Profession Of Violence
12. Sugababes - Stronger
13. Bon Jovi - All About Lovin You
14. Metallica - The Unforgiven
15. Evanescence & Poul McCoy - Bring Me Tonight
16. Angel Dust - The Temple Of The King
17. R. Stewart & Hellicopter Girl - Don't Come Around
18. The Beatles - Yesterday
Exact Audio Copy V1.1 from 23. June 2015
EAC extraction logfile from 15. August 2017, 21:04
VA / 1000% Gold Rock Ballads Vol. 3 (2003)
Used drive  : PIONEER BD-RW   BDR-208D   Adapter: 1  ID: 0
Read mode               : Secure
Utilize accurate stream : Yes
Defeat audio cache      : Yes
Make use of C2 pointers : No
Read offset correction                      : 667
Overread into Lead-In and Lead-Out          : No
Fill up missing offset samples with silence : Yes
Delete leading and trailing silent blocks   : No
Null samples used in CRC calculations       : Yes
Used interface                              : Native Win32 interface for Win NT & 2000
Used output format              : User Defined Encoder
Selected bitrate                : 128 kBit/s
Quality                         : High
Add ID3 tag                     : No
Command line compressor         : C:\Program Files (x86)\Exact Audio Copy\Flac\flac.exe
Additional command line options : -V -8 -T "Date=%year%" -T "COMMENT=ripped special for Rutracker.org - maximwizer1" -T "Genre=%genre%" %source%
TOC of the extracted CD
     Track |   Start  |  Length  | Start sector | End sector
    ---------------------------------------------------------
        1  |  0:00.00 |  3:45.46 |         0    |    16920
        2  |  3:45.46 |  4:12.74 |     16921    |    35894
        3  |  7:58.45 |  4:21.28 |     35895    |    55497
        4  | 12:19.73 |  4:43.54 |     55498    |    76776
        5  | 17:03.52 |  4:05.26 |     76777    |    95177
        6  | 21:09.03 |  3:42.16 |     95178    |   111843
        7  | 24:51.19 |  4:31.11 |    111844    |   132179
        8  | 29:22.30 |  4:31.08 |    132180    |   152512
        9  | 33:53.38 |  4:02.57 |    152513    |   170719
       10  | 37:56.20 |  3:55.45 |    170720    |   188389
       11  | 41:51.65 |  4:33.42 |    188390    |   208906
       12  | 46:25.32 |  3:58.11 |    208907    |   226767
       13  | 50:23.43 |  3:41.02 |    226768    |   243344
       14  | 54:04.45 |  5:58.09 |    243345    |   270203
       15  | 60:02.54 |  3:53.32 |    270204    |   287710
       16  | 63:56.11 |  6:32.16 |    287711    |   317126
       17  | 70:28.27 |  3:40.34 |    317127    |   333660
       18  | 74:08.61 |  2:03.13 |    333661    |   342898
Range status and errors
Selected range
     Filename C:\[2003] [CD-R] VA - 1000% Gold Rock Ballads Vol. 3\VA - 1000% Gold Rock Ballads Vol. 3 (2003).wav
     Peak level 96.6 %
     Extraction speed 6.9 X
     Range quality 99.9 %
     Test CRC FC5F7BA9
     Copy CRC FC5F7BA9
     Copy OK
No errors occurred
AccurateRip summary
Track  1  not present in database
Track  2  not present in database
Track  3  not present in database
Track  4  not present in database
Track  5  not present in database
Track  6  not present in database
Track  7  not present in database
Track  8  not present in database
Track  9  not present in database
Track 10  not present in database
Track 11  not present in database
Track 12  not present in database
Track 13  not present in database
Track 14  not present in database
Track 15  not present in database
Track 16  not present in database
Track 17  not present in database
Track 18  not present in database
None of the tracks are present in the AccurateRip database
End of status report
---- CUETools DB Plugin V2.1.6
[CTDB TOCID: 36U_DocP2Xqyp0T2dXGtqNMQfTU-] disk not present in database
Submit result: 36U_DocP2Xqyp0T2dXGtqNMQfTU- has been uploaded
==== Log checksum A8976727742275811717CC303C17CB343795AE17EE289F2709D6714241A2920D ====
01. Demis Roussos - From Souvenirs To Souvenirs
02. Joe Cocker - My Father's Son
03. Whitesnake - Is This Love
04. Enigma - Gravity Of Love
05. Sting - It's Probably Me
06. Joe Dassin - Salut
07. Modern Talking - Angie's Heart
08. Eurythmics - I Save The World Today
09. Gary Moore - Still Got The Blues
10. Bon Jovi - Always
11. Tanita Tikaram - Catheral Song
12. Frank Duval - Lonesome
13. George Michael - Jesus To A Child
14. Mariah Carey - After Tonight
15. R.E.M. - Losing My Religion
16. Malcolm McLaren - Paris, Paris
17. Scorpions - Are You The One
18. Down Low - So Long Goodbye... (Maxi Version)
Exact Audio Copy V1.1 from 23. June 2015
EAC extraction logfile from 19. August 2017, 21:12
VA / 1000% Romantic Vol. 4 (2001)
Used drive  : PIONEER BD-RW   BDR-208D   Adapter: 1  ID: 0
Read mode               : Secure
Utilize accurate stream : Yes
Defeat audio cache      : Yes
Make use of C2 pointers : No
Read offset correction                      : 667
Overread into Lead-In and Lead-Out          : No
Fill up missing offset samples with silence : Yes
Delete leading and trailing silent blocks   : No
Null samples used in CRC calculations       : Yes
Used interface                              : Native Win32 interface for Win NT & 2000
Used output format              : User Defined Encoder
Selected bitrate                : 128 kBit/s
Quality                         : High
Add ID3 tag                     : No
Command line compressor         : C:\Program Files (x86)\Exact Audio Copy\Flac\flac.exe
Additional command line options : -V -8 -T "Date=%year%" -T "COMMENT=ripped special for Rutracker.org - maximwizer1" -T "Genre=%genre%" %source%
TOC of the extracted CD
     Track |   Start  |  Length  | Start sector | End sector
    ---------------------------------------------------------
        1  |  0:00.00 |  2:31.50 |         0    |    11374
        2  |  2:31.50 |  4:27.34 |     11375    |    31433
        3  |  6:59.09 |  4:38.46 |     31434    |    52329
        4  | 11:37.55 |  3:53.73 |     52330    |    69877
        5  | 15:31.53 |  6:18.71 |     69878    |    98298
        6  | 21:50.49 |  3:15.59 |     98299    |   112982
        7  | 25:06.33 |  3:36.21 |    112983    |   129203
        8  | 28:42.54 |  4:48.67 |    129204    |   150870
        9  | 33:31.46 |  4:05.14 |    150871    |   169259
       10  | 37:36.60 |  5:47.31 |    169260    |   195315
       11  | 43:24.16 |  2:50.32 |    195316    |   208097
       12  | 46:14.48 |  2:03.43 |    208098    |   217365
       13  | 48:18.16 |  6:47.18 |    217366    |   247908
       14  | 55:05.34 |  4:13.69 |    247909    |   266952
       15  | 59:19.28 |  4:25.57 |    266953    |   286884
       16  | 63:45.10 |  5:14.15 |    286885    |   310449
       17  | 68:59.25 |  3:09.47 |    310450    |   324671
       18  | 72:08.72 |  5:03.38 |    324672    |   347434
Range status and errors
Selected range
     Filename C:\[2001] [CD-R] VA - 1000% Romantic Vol. 4\VA - 1000% Romantic Vol. 4 (2001).wav
     Peak level 97.6 %
     Extraction speed 4.6 X
     Range quality 100.0 %
     Test CRC BD50CB87
     Copy CRC BD50CB87
     Copy OK
No errors occurred
AccurateRip summary
Track  1  not present in database
Track  2  not present in database
Track  3  not present in database
Track  4  not present in database
Track  5  not present in database
Track  6  not present in database
Track  7  not present in database
Track  8  not present in database
Track  9  not present in database
Track 10  not present in database
Track 11  not present in database
Track 12  not present in database
Track 13  not present in database
Track 14  not present in database
Track 15  not present in database
Track 16  not present in database
Track 17  not present in database
Track 18  not present in database
None of the tracks are present in the AccurateRip database
End of status report
---- CUETools DB Plugin V2.1.6
[CTDB TOCID: kdfGmeTASrAmdvXGucvKbqt37qM-] disk not present in database
Submit result: kdfGmeTASrAmdvXGucvKbqt37qM- has been uploaded
==== Log checksum 957E1A59433276FA6704C77E2A5D9F2C99B43DF2F7B959EA5B155570AA72A344 ====
01. Kylie Minogue - Confide In Me
02. Sting - Fragile
03. Michael Jackson - Dirty Diana
04. Roxette - Anyone
05. Scorpions - White Dove
06. No Mercy - When I Die
07. Belinda Carlisle - La Luna
08. Elton John - Sorry Seems To Be The Hardest Word
09. Bon Jovi - Thank You For Loving Me
10. Chicago - If You Leave Me Now
11. Richard Marx - Hold On To The Nights
12. Gipsy Kings - Passion
13. Julio Iglesias - Let It Be Me
14. Black - Sweetest Smile
15. Santana - Africa Mamba
16. Cliff Richard - Miss You Nights
17. Dusty Springfield - If You Go Away
18. D-Emotion Project - Pritouritze Planinata
Exact Audio Copy V1.1 from 23. June 2015
EAC extraction logfile from 4. July 2017, 18:53
VA / 1000% Romantic Vol. 5 (2001)
Used drive  : PIONEER BD-RW   BDR-208D   Adapter: 1  ID: 0
Read mode               : Secure
Utilize accurate stream : Yes
Defeat audio cache      : Yes
Make use of C2 pointers : No
Read offset correction                      : 667
Overread into Lead-In and Lead-Out          : No
Fill up missing offset samples with silence : Yes
Delete leading and trailing silent blocks   : No
Null samples used in CRC calculations       : Yes
Used interface                              : Native Win32 interface for Win NT & 2000
Used output format              : User Defined Encoder
Selected bitrate                : 128 kBit/s
Quality                         : High
Add ID3 tag                     : No
Command line compressor         : C:\Program Files (x86)\Exact Audio Copy\Flac\flac.exe
Additional command line options : -V -8 -T "Date=%year%" -T "COMMENT=ripped special for Rutracker.org - maximwizer1" -T "Genre=%genre%" %source%
TOC of the extracted CD
     Track |   Start  |  Length  | Start sector | End sector
    ---------------------------------------------------------
        1  |  0:00.00 |  5:50.48 |         0    |    26297
        2  |  5:50.48 |  3:50.28 |     26298    |    43575
        3  |  9:41.01 |  4:46.14 |     43576    |    65039
        4  | 14:27.15 |  4:27.57 |     65040    |    85121
        5  | 18:54.72 |  4:14.05 |     85122    |   104176
        6  | 23:09.02 |  4:27.09 |    104177    |   124210
        7  | 27:36.11 |  4:08.33 |    124211    |   142843
        8  | 31:44.44 |  3:45.07 |    142844    |   159725
        9  | 35:29.51 |  4:38.33 |    159726    |   180608
       10  | 40:08.09 |  3:48.67 |    180609    |   197775
       11  | 43:57.01 |  4:21.20 |    197776    |   217370
       12  | 48:18.21 |  3:00.53 |    217371    |   230923
       13  | 51:18.74 |  3:04.13 |    230924    |   244736
       14  | 54:23.12 |  5:18.07 |    244737    |   268593
       15  | 59:41.19 |  4:37.63 |    268594    |   289431
       16  | 64:19.07 |  3:53.52 |    289432    |   306958
       17  | 68:12.59 |  3:49.20 |    306959    |   324153
       18  | 72:02.04 |  4:46.64 |    324154    |   345667
Range status and errors
Selected range
     Filename C:\[2001] [CD-R] VA - 1000% Romantic Vol. 5\VA - 1000% Romantic Vol. 5 (2001).wav
     Peak level 97.2 %
     Extraction speed 4.5 X
     Range quality 100.0 %
     Test CRC 4B51567C
     Copy CRC 4B51567C
     Copy OK
No errors occurred
End of status report
---- CUETools DB Plugin V2.1.6
[CTDB TOCID: AtN9C1FCd5w3NiWXWgYYKH9Ax0A-] disk not present in database
Submit result: AtN9C1FCd5w3NiWXWgYYKH9Ax0A- has been uploaded
==== Log checksum 1A2907ABAE59650CFB9A303A2F6449E6FBD306AFC875324749674FB7AA291643 ====
01. Lauren Christie - Colour Of The Night
02. The Beloved - Sweet Harmony
03. Kylie Minoque & Nick Cave - Where The Wild Roses Grow
04. Roxette - It Must Have Been Love
05. Duran Duran - Come Undone
06. Sam Brown - Stop
07. Eric Clapton - Tears In Heaven
08. Chris De Burgh - The Lady In Red
09. Richard Marx - Hazard
10. A-ha - Crying In The Rain
11. Chris Rea - Josephine
12. Toni Braxton - Un'break My Heart
13. Youssou N'dour & Neneh Cherry - 7 Seconds
14. Bryan Adams - Please Forgive Me
15. Sade - No Ordinary Love
16. Gilla - Johnny
17. Barbara Streisand - Woman In Love
Exact Audio Copy V1.1 from 23. June 2015
EAC extraction logfile from 26. August 2017, 13:22
VA / 1000% Ballad's Vol. 1 (2001)
Used drive  : PIONEER BD-RW   BDR-208D   Adapter: 1  ID: 0
Read mode               : Secure
Utilize accurate stream : Yes
Defeat audio cache      : Yes
Make use of C2 pointers : No
Read offset correction                      : 667
Overread into Lead-In and Lead-Out          : No
Fill up missing offset samples with silence : Yes
Delete leading and trailing silent blocks   : No
Null samples used in CRC calculations       : Yes
Used interface                              : Native Win32 interface for Win NT & 2000
Used output format              : User Defined Encoder
Selected bitrate                : 128 kBit/s
Quality                         : High
Add ID3 tag                     : No
Command line compressor         : C:\Program Files (x86)\Exact Audio Copy\Flac\flac.exe
Additional command line options : -V -8 -T "Date=%year%" -T "COMMENT=ripped special for Rutracker.org - maximwizer1" -T "Genre=%genre%" %source%
TOC of the extracted CD
     Track |   Start  |  Length  | Start sector | End sector
    ---------------------------------------------------------
        1  |  0:00.00 |  3:55.70 |         0    |    17694
        2  |  3:55.70 |  4:57.52 |     17695    |    40021
        3  |  8:53.47 |  3:54.54 |     40022    |    57625
        4  | 12:48.26 |  4:15.54 |     57626    |    76804
        5  | 17:04.05 |  4:35.20 |     76805    |    97449
        6  | 21:39.25 |  4:14.41 |     97450    |   116540
        7  | 25:53.66 |  4:29.15 |    116541    |   136730
        8  | 30:23.06 |  4:11.49 |    136731    |   155604
        9  | 34:34.55 |  5:05.64 |    155605    |   178543
       10  | 39:40.44 |  4:15.17 |    178544    |   197685
       11  | 43:55.61 |  4:28.09 |    197686    |   217794
       12  | 48:23.70 |  4:26.43 |    217795    |   237787
       13  | 52:50.38 |  4:56.61 |    237788    |   260048
       14  | 57:47.24 |  5:52.22 |    260049    |   286470
       15  | 63:39.46 |  7:14.57 |    286471    |   319077
       16  | 70:54.28 |  3:37.37 |    319078    |   335389
       17  | 74:31.65 |  3:46.15 |    335390    |   352354
Range status and errors
Selected range
     Filename C:\[2001] [V180] VA - 1000% Ballad's Vol. 1\VA - 1000% Ballad's Vol. 1 (2001).wav
     Peak level 96.6 %
     Extraction speed 5.0 X
     Range quality 100.0 %
     Test CRC 57C93119
     Copy CRC 57C93119
     Copy OK
No errors occurred
AccurateRip summary
Track  1  not present in database
Track  2  not present in database
Track  3  not present in database
Track  4  not present in database
Track  5  not present in database
Track  6  not present in database
Track  7  not present in database
Track  8  not present in database
Track  9  not present in database
Track 10  not present in database
Track 11  not present in database
Track 12  not present in database
Track 13  not present in database
Track 14  not present in database
Track 15  not present in database
Track 16  not present in database
Track 17  not present in database
None of the tracks are present in the AccurateRip database
End of status report
---- CUETools DB Plugin V2.1.6
[CTDB TOCID: Yui3dhrvn7gdqnlzLz9gn5Yrbkc-] disk not present in database
Submit result: Yui3dhrvn7gdqnlzLz9gn5Yrbkc- has been uploaded
==== Log checksum 568ECE4F84997C2A7966072C9EFE5A6E50A457003FDBA859EF33C0CF807259E2 ====
01. E. Ramazzotti & Cher - Piu Che Puoi
02. Travis - Sing
03. Rednex - Hold Me For A While
04. Touch & Go - Tango In Harlem
05. Tito & Tarantula - After Dark
06. The Verve - Bitter Sweet Symphony
07. Leann Rimes - I Need You
08. Ricky Martin & Madonna - Be Careful
09. Haddaway - I Miss You
10. Mariah Carey - My All
11. Vacuum - I Breathe
12. Celine Dione - My Heart Will Go On
13. Dido - Thank You
14. Robbie Williams - Supreme
15. Sting - Desert Rose
16. Adriano Celentano - Ja Tebia Liubliu
17. Marc Antony - When I Dream At Night
18. Nelly Furtado - I'm Like A Bird
19. Graig David - I'm Walking Away
20. Enrique Iglesias & Whitney Houston - Could I Have This Kiss Forever
Exact Audio Copy V1.1 from 23. June 2015
EAC extraction logfile from 22. August 2017, 17:24
VA / 1000% Ballad's Vol. 2 (2001)
Used drive  : PIONEER BD-RW   BDR-208D   Adapter: 1  ID: 0
Read mode               : Secure
Utilize accurate stream : Yes
Defeat audio cache      : Yes
Make use of C2 pointers : No
Read offset correction                      : 667
Overread into Lead-In and Lead-Out          : No
Fill up missing offset samples with silence : Yes
Delete leading and trailing silent blocks   : No
Null samples used in CRC calculations       : Yes
Used interface                              : Native Win32 interface for Win NT & 2000
Used output format              : User Defined Encoder
Selected bitrate                : 128 kBit/s
Quality                         : High
Add ID3 tag                     : No
Command line compressor         : C:\Program Files (x86)\Exact Audio Copy\Flac\flac.exe
Additional command line options : -V -8 -T "Date=%year%" -T "COMMENT=ripped special for Rutracker.org - maximwizer1" -T "Genre=%genre%" %source%
TOC of the extracted CD
     Track |   Start  |  Length  | Start sector | End sector
    ---------------------------------------------------------
        1  |  0:00.00 |  4:09.10 |         0    |    18684
        2  |  4:09.10 |  3:45.14 |     18685    |    35573
        3  |  7:54.24 |  3:11.52 |     35574    |    49950
        4  | 11:06.01 |  3:22.37 |     49951    |    65137
        5  | 14:28.38 |  4:07.44 |     65138    |    83706
        6  | 18:36.07 |  5:54.74 |     83707    |   110330
        7  | 24:31.06 |  3:43.73 |    110331    |   127128
        8  | 28:15.04 |  4:01.62 |    127129    |   145265
        9  | 32:16.66 |  4:05.05 |    145266    |   163645
       10  | 36:21.71 |  3:44.44 |    163646    |   180489
       11  | 40:06.40 |  3:53.11 |    180490    |   197975
       12  | 43:59.51 |  4:35.06 |    197976    |   218606
       13  | 48:34.57 |  3:35.25 |    218607    |   234756
       14  | 52:10.07 |  4:00.38 |    234757    |   252794
       15  | 56:10.45 |  4:40.34 |    252795    |   273828
       16  | 60:51.04 |  2:11.10 |    273829    |   283663
       17  | 63:02.14 |  3:28.35 |    283664    |   299298
       18  | 66:30.49 |  3:58.34 |    299299    |   317182
       19  | 70:29.08 |  3:07.71 |    317183    |   331278
       20  | 73:37.04 |  4:20.05 |    331279    |   350783
Range status and errors
Selected range
     Filename C:\[2001] [V182] VA - 1000% Ballad's Vol. 2\VA - 1000% Ballad's Vol. 2 (2001).wav
     Peak level 100.0 %
     Extraction speed 4.6 X
     Range quality 100.0 %
     Test CRC FB712677
     Copy CRC FB712677
     Copy OK
No errors occurred
AccurateRip summary
Track  1  cannot be verified as accurate (confidence 1)  [1AF84533], AccurateRip returned [E82C50E7]  (AR v2)
Track  2  not present in database
Track  3  cannot be verified as accurate (confidence 1)  [3B258388], AccurateRip returned [E64A80AD]  (AR v2)
Track  4  not present in database
Track  5  not present in database
Track  6  not present in database
Track  7  not present in database
Track  8  not present in database
Track  9  not present in database
Track 10  not present in database
Track 11  not present in database
Track 12  not present in database
Track 13  not present in database
Track 14  not present in database
Track 15  not present in database
Track 16  not present in database
Track 17  not present in database
Track 18  not present in database
Track 19  not present in database
Track 20  not present in database
 2 трек(и) не удалось проверить на точность
18 трек(и) не содержатся в базе AccurateRip
No tracks could be verified as accurate
You may have a different pressing from the one(s) in the database
End of status report
---- CUETools DB Plugin V2.1.6
[CTDB TOCID: Es0rdlWDVxKzZtmK80I9nrJxrxg-] found
Submit result: Es0rdlWDVxKzZtmK80I9nrJxrxg- has been uploaded
Track | CTDB Status
  1   | (1/1) Differs in 129 samples @00:10:45,00:11:38,00:31:63,00:58:30,00:58:39-00:58:40,00:59:14-00:59:15,00:59:44-00:59:45,00:59:54-00:59:55,02:01:13,02:01:32,02:01:54,02:01:74-02:02:00,02:02:10,02:02:30,02:02:61,02:02:71,02:03:06-02:03:07,02:03:27,02:26:47,02:27:03,03:51:16
  2   | (1/1) Accurately ripped
  3   | (1/1) Accurately ripped
  4   | (1/1) Accurately ripped
  5   | (1/1) Accurately ripped
  6   | (1/1) Accurately ripped
  7   | (1/1) Differs in 58 samples @01:16:11,01:16:40-01:16:41,01:16:56,01:17:11,01:17:56,01:17:71,03:27:34,03:27:50,03:34:68
  8   | (1/1) Accurately ripped
  9   | (1/1) Accurately ripped
 10   | (1/1) Accurately ripped
 11   | (1/1) Accurately ripped
 12   | (1/1) Accurately ripped
 13   | (1/1) Differs in 29 samples @00:00:11,01:39:03,01:39:41,01:40:04,01:40:23,02:47:22,02:47:41
 14   | (1/1) Accurately ripped
 15   | (1/1) Accurately ripped
 16   | (1/1) Differs in 6 samples @01:38:74,01:39:19,01:40:06
 17   | (1/1) Accurately ripped
 18   | (1/1) Accurately ripped
 19   | (1/1) Accurately ripped
 20   | (1/1) Accurately ripped
If you are sure that your rip contains errors, you can use CUETools to repair it.
==== Log checksum B6F5FF32E88119BD94BCF99003BF06FF288D369CC91B79F337A09BE56F542A84 ====
01. Rammstein - Rammstein
02. Rammstein - Asher Zu Asher
03. Rammstein - Bestrafe Mich
04. Rammstein - Du Hast (Remix By Jacob Hellner)
05. Rammstein - Du Riechst So Gut
06. Rammstein - Eifersucht
07. Rammstein - Feuer Frei
08. Rammstein - Herzeleid
09. Rammstein - Ich Will
10. Rammstein - Kokain
11. Rammstein - Laichzeit
12. Rammstein - Links 2 3 4
13. Rammstein - Rein Raus
14. Rammstein - Spiel Mit Mir
15. Rammstein - Du Hast
16. Rammstein - Heirate Mich
17. Rammstein - Wollt Ihr Das Bett In Flammen Sehen
18. Rammstein - Nebel
19. Rammstein - Spieluhr
Exact Audio Copy V1.1 from 23. June 2015
EAC extraction logfile from 6. August 2017, 17:23
Rammstein / 1000% Rammstein Vol. 1 (2003)
Used drive  : PIONEER BD-RW   BDR-208D   Adapter: 1  ID: 0
Read mode               : Secure
Utilize accurate stream : Yes
Defeat audio cache      : Yes
Make use of C2 pointers : No
Read offset correction                      : 667
Overread into Lead-In and Lead-Out          : No
Fill up missing offset samples with silence : Yes
Delete leading and trailing silent blocks   : No
Null samples used in CRC calculations       : Yes
Used interface                              : Native Win32 interface for Win NT & 2000
Used output format              : User Defined Encoder
Selected bitrate                : 128 kBit/s
Quality                         : High
Add ID3 tag                     : No
Command line compressor         : C:\Program Files (x86)\Exact Audio Copy\Flac\flac.exe
Additional command line options : -V -8 -T "Date=%year%" -T "COMMENT=ripped special for Rutracker.org - maximwizer1" -T "Genre=%genre%" %source%
TOC of the extracted CD
     Track |   Start  |  Length  | Start sector | End sector
    ---------------------------------------------------------
        1  |  0:00.00 |  4:24.55 |         0    |    19854
        2  |  4:24.55 |  3:48.38 |     19855    |    36992
        3  |  8:13.18 |  3:35.54 |     36993    |    53171
        4  | 11:48.72 |  6:40.72 |     53172    |    83243
        5  | 18:29.69 |  4:49.18 |     83244    |   104936
        6  | 23:19.12 |  3:34.60 |    104937    |   121046
        7  | 26:53.72 |  3:07.69 |    121047    |   135140
        8  | 30:01.66 |  3:41.53 |    135141    |   151768
        9  | 33:43.44 |  3:36.02 |    151769    |   167970
       10  | 37:19.46 |  3:07.19 |    167971    |   182014
       11  | 40:26.65 |  4:19.38 |    182015    |   201477
       12  | 44:46.28 |  3:40.23 |    201478    |   218000
       13  | 48:26.51 |  3:09.64 |    218001    |   232239
       14  | 51:36.40 |  4:31.65 |    232240    |   252629
       15  | 56:08.30 |  3:53.40 |    252630    |   270144
       16  | 60:01.70 |  4:43.74 |    270145    |   291443
       17  | 64:45.69 |  5:16.69 |    291444    |   315212
       18  | 70:02.63 |  4:34.04 |    315213    |   335766
       19  | 74:36.67 |  4:45.71 |    335767    |   357212
Range status and errors
Selected range
     Filename C:\[2003] [Z1305] 1000% Rammstein Vol. 1\1000% Rammstein Vol. 1 (2003).wav
     Peak level 96.6 %
     Extraction speed 8.0 X
     Range quality 100.0 %
     Test CRC 3E3B4EBB
     Copy CRC 3E3B4EBB
     Copy OK
No errors occurred
End of status report
---- CUETools DB Plugin V2.1.6
[CTDB TOCID: F0McWA.h3VxuZKCaNweD0Q1trRo-] found
Submit result: F0McWA.h3VxuZKCaNweD0Q1trRo- has been confirmed
Track | CTDB Status
  1   | (1/1) Accurately ripped
  2   | (1/1) Accurately ripped
  3   | (1/1) Accurately ripped
  4   | (1/1) Accurately ripped
  5   | (1/1) Accurately ripped
  6   | (1/1) Accurately ripped
  7   | (1/1) Accurately ripped
  8   | (1/1) Accurately ripped
  9   | (1/1) Accurately ripped
 10   | (1/1) Accurately ripped
 11   | (1/1) Accurately ripped
 12   | (1/1) Accurately ripped
 13   | (1/1) Accurately ripped
 14   | (1/1) Accurately ripped
 15   | (1/1) Accurately ripped
 16   | (1/1) Accurately ripped
 17   | (1/1) Accurately ripped
 18   | (1/1) Accurately ripped
 19   | (1/1) Accurately ripped
==== Log checksum 5E839A6E697C01A9568D3167CC085A3C7E5F26244EA2086ECCDCBB228F2E5948 ====
01. Lauren Christy - The Color Of The Night
02. The Verve - Bitter Sweet Symphony
03. Sixpence None The Richer - Kiss Me
04. Barry White - Never, Never Gonna Give You Up
05. Garbage - The World Is Not Enough
06. Roxette - It Must Have Been Love
07. Jamiroquai - Deeper Underground
08. The Cardigans - Lovefool
09. Adam Clayton & Larry Mullen - Theme From Mission: Impossible
10. Fatboy Slim - Gangster Tripping
11. PF Project feat. Ewan McGregor - Choose Life
12. The Immortals - Mortal Combat Theme
13. Stereo MC's - Connected
14. Diana King - I Say A Little Prayer
15. Eric Sierra - The Diva Dance
16. Orbital - The Saint
17. Will Smith - Men In Black
18. Celine Dion - My Heart Will Go On
19. DJ Dado - X-Files (Radio Edit)
20. Monty Norman Orchestra - The James Bond Theme
Exact Audio Copy V1.1 from 23. June 2015
EAC extraction logfile from 24. August 2017, 19:31
VA / 1000% Golden Soundtrack Vol. 1 (2002)
Used drive  : PIONEER BD-RW   BDR-208D   Adapter: 1  ID: 0
Read mode               : Secure
Utilize accurate stream : Yes
Defeat audio cache      : Yes
Make use of C2 pointers : No
Read offset correction                      : 667
Overread into Lead-In and Lead-Out          : No
Fill up missing offset samples with silence : Yes
Delete leading and trailing silent blocks   : No
Null samples used in CRC calculations       : Yes
Used interface                              : Native Win32 interface for Win NT & 2000
Used output format              : User Defined Encoder
Selected bitrate                : 128 kBit/s
Quality                         : High
Add ID3 tag                     : No
Command line compressor         : C:\Program Files (x86)\Exact Audio Copy\Flac\flac.exe
Additional command line options : -V -8 -T "Date=%year%" -T "COMMENT=ripped special for Rutracker.org - maximwizer1" -T "Genre=%genre%" %source%
TOC of the extracted CD
     Track |   Start  |  Length  | Start sector | End sector
    ---------------------------------------------------------
        1  |  0:00.00 |  3:56.63 |         0    |    17762
        2  |  3:56.63 |  5:55.44 |     17763    |    44431
        3  |  9:52.32 |  3:14.42 |     44432    |    59023
        4  | 13:06.74 |  4:44.29 |     59024    |    80352
        5  | 17:51.28 |  3:50.43 |     80353    |    97645
        6  | 21:41.71 |  4:14.60 |     97646    |   116755
        7  | 25:56.56 |  4:30.49 |    116756    |   137054
        8  | 30:27.30 |  3:14.57 |    137055    |   151661
        9  | 33:42.12 |  3:26.11 |    151662    |   167122
       10  | 37:08.23 |  4:03.27 |    167123    |   185374
       11  | 41:11.50 |  3:48.33 |    185375    |   202507
       12  | 45:00.08 |  3:02.61 |    202508    |   216218
       13  | 48:02.69 |  3:56.64 |    216219    |   233982
       14  | 51:59.58 |  3:22.30 |    233983    |   249162
       15  | 55:22.13 |  4:40.32 |    249163    |   270194
       16  | 60:02.45 |  4:29.56 |    270195    |   290425
       17  | 64:32.26 |  3:18.36 |    290426    |   305311
       18  | 67:50.62 |  4:25.61 |    305312    |   325247
       19  | 72:16.48 |  3:25.58 |    325248    |   340680
       20  | 75:42.31 |  1:42.40 |    340681    |   348370
Range status and errors
Selected range
     Filename C:\[2002] [CD-R] VA - 1000% Golden Soundtrack Vol. 1\VA - 1000% Golden Soundtrack Vol. 1 (2002).wav
     Peak level 98.0 %
     Extraction speed 4.7 X
     Range quality 100.0 %
     Test CRC E59C89B1
     Copy CRC E59C89B1
     Copy OK
No errors occurred
AccurateRip summary
Track  1  cannot be verified as accurate (confidence 1)  [C6A050B1], AccurateRip returned [EFA6509C]  (AR v2)
Track  2  cannot be verified as accurate (confidence 1)  [987F068B], AccurateRip returned [E3C71BA1]  (AR v2)
Track  3  cannot be verified as accurate (confidence 1)  [15FB2BB6], AccurateRip returned [533496D5]  (AR v2)
Track  4  cannot be verified as accurate (confidence 1)  [DD8EE0CB], AccurateRip returned [C9F7D222]  (AR v2)
Track  5  cannot be verified as accurate (confidence 1)  [56E57196], AccurateRip returned [3F7B281A]  (AR v2)
Track  6  cannot be verified as accurate (confidence 1)  [C6F7DA4C], AccurateRip returned [80ECBE4C]  (AR v2)
Track  7  cannot be verified as accurate (confidence 1)  [4A27E82D], AccurateRip returned [A288317F]  (AR v2)
Track  8  cannot be verified as accurate (confidence 1)  [BC60C319], AccurateRip returned [E9FF43F2]  (AR v2)
Track  9  cannot be verified as accurate (confidence 1)  [9433B771], AccurateRip returned [93DFCC00]  (AR v2)
Track 10  cannot be verified as accurate (confidence 1)  [A77C9BF7], AccurateRip returned [3FFBA881]  (AR v2)
Track 11  cannot be verified as accurate (confidence 1)  [D91BE161], AccurateRip returned [24B295F9]  (AR v2)
Track 12  cannot be verified as accurate (confidence 1)  [937635AE], AccurateRip returned [87C56C7C]  (AR v2)
Track 13  cannot be verified as accurate (confidence 1)  [B16FF120], AccurateRip returned [1858FBC8]  (AR v2)
Track 14  cannot be verified as accurate (confidence 1)  [15EABC07], AccurateRip returned [EFDBFF99]  (AR v2)
Track 15  cannot be verified as accurate (confidence 1)  [24D37BEC], AccurateRip returned [156FF195]  (AR v2)
Track 16  cannot be verified as accurate (confidence 1)  [2A08BF95], AccurateRip returned [B2EED8A4]  (AR v2)
Track 17  cannot be verified as accurate (confidence 1)  [76B6E970], AccurateRip returned [A7A14B4D]  (AR v2)
Track 18  cannot be verified as accurate (confidence 1)  [2EFE469E], AccurateRip returned [34F33A29]  (AR v2)
Track 19  cannot be verified as accurate (confidence 1)  [4BD883FB], AccurateRip returned [D7DB538F]  (AR v2)
Track 20  cannot be verified as accurate (confidence 1)  [CECCEF30], AccurateRip returned [E4E9760F]  (AR v2)
No tracks could be verified as accurate
You may have a different pressing from the one(s) in the database
End of status report
---- CUETools DB Plugin V2.1.6
[CTDB TOCID: h73C27pt6dVb7u.Q5ChcHwJp6nk-] disk not present in database
Submit result: h73C27pt6dVb7u.Q5ChcHwJp6nk- has been uploaded
==== Log checksum 07FAD441A09B42273A58583179105014A1513ACEA4333C060685415250551683 ====
Вне форума Profile PM
Вверх
Показать сообщения:    
Ответить на тему Вверх
Список форумов ivbox.me » Музыка Lossless » [Ballad, Pop, Rock, Soundtrack] 1000% The Best Of The Best Music Collection (2001-2003), FLAC (image + .cue)

Текущее время: 17-Дек 05:13

Часовой пояс: GMT + 3


Вы не можете начинать темы
Вы не можете отвечать на сообщения
Вы не можете редактировать свои сообщения
Вы не можете удалять свои сообщения
Вы не можете голосовать в опросах
Вы не можете прикреплять файлы к сообщениям
Вы не можете скачивать файлы