Loading...
Error
Фрилич! «КАЧАЙ И РАЗДАВАЙ». Скачанное не засчитывается!
Регистрация
Имя:     Пароль:  
Забыли пароль?

Валериан и город тысячи планет 3Д/ Valerian and the City of a Thousand Planets 3D [2017 г., фантастика, фэнтези, боевик, приключения] Half OverUnder / Вертикальная анаморфная стереопара

Список форумов ivbox.me » 3D видео » Кинофильмы (3D) » Валериан и город тысячи планет 3Д/ Valerian and the City of a Thousand Planets 3D [2017 г., фантастика, фэнтези, боевик, приключения] Half OverUnder / Вертикальная анаморфная стереопара
Ответить на тему Вниз
Статистика раздачи
Скачали: [ 5 ]
 
     
Сделать раздачу рекомендованной:  Подтвердите 
 
Автор Сообщение

URFIH

Сид-бонус: 5108

 10 МБ/с   1 МБ/с

Стаж: 6 лет 6 месяцев

Сообщений: 150

Откуда: где 7 гудков, и все на обед

Награды: Нет

Рейтинг: Нет
Скачано:  17,08 ГБ
Отдано:  730,51 ГБ
на своих 629,77 ГБ
бонус:  534,01 ГБ
Доступно 6,15 ТБ

post 06-Дек-2017 20:00 (10 дней назад)

Quote

Валериан и город тысячи планет / Valerian and the City of a Thousand Planets




Год выпуска: 2017
Выпущено: Франция, Китай, Бельгия, Германия, ОАЭ, США, Великобритания, Канада (STX Films, Europa Corp Films USA, Valerian S.A.S., TF1 Films Production, Fundamental Films, Orange Studio, Universum Film GmbH, Novo Pictures, River Road Entertainment, Belga Films)
Жанр: фантастика, фэнтези, боевик, приключения
Продолжительность: 02:16:40
Озвучка: Профессиональная дублированная - iTunes
Режиссер: Люк Бессон

Роли исполняли (дублировали):



Major Valerian - Дэйн ДеХаан (Станислав Тикунов)
Sergeant Laureline - Кара Делевинь (Мария Иващенко)
Commander Arun Filitt - Клайв Оуэн (Денис Беспалый)
Bubble - Рианна (Ирина Киреева)
Jolly the Pimp - Итан Хоук (Василий Дахненко)
Defence Minister - Херби Хэнкок (Олег Куценко)
Sergeant Neza - Крис У (Филипп Лебедев)
General Okto-Bar - Сэм Спруэлл (Никита Прозоровский)
Bob the Pirate - Ален Шаба (Владимир Антоник)
President of the World State Federation - Рутгер Хауэр (Владимир Антоник)
Captain Crowford - Питер Хадсон

О фильме: 2700 год. Валериан и Лорелин — космические спецагенты, которые по долгу службы впутались в подозрительное дело и стали невольными участниками то ли межгалактического заговора, то ли аферы причудливых поселенцев планеты Альфа, прибывших туда из различных миров со всех уголков галактик.

IMDB Rate
Качество: BDRip (by Ash61 с BD 3D Nor)
Контейнер: MKV
Формат 3D: Half OverUnder / Вертикальная анаморфная стереопара
Порядок ракурсов: левый ракурс первый
Видео: AVC / 1920х1080p / 23,976 fps / 10.0 Mbps

Аудио:
#1 - Русский /AC3 / 48 KHz / 5.1 ch / 384 Kbps (Дубляж - iTunes)
#2 - Украинский / AC3 / 48 KHz / 2 ch / 192 Kbps (Дубляж - Line) [моно] (Спасибо Hurtom!)
#3 - Английский / AC3 / 48 KHz / 5.1 ch / 640 Kbps (Original - BD 3D Nor)

Субтитры (SRT):
Вшитые (softsub):
#1 - Русские Форсированные [Ash61 v.1] (включены по умолчанию)
#2 - Русские Полные (по оф. дубляжу)
#3 - Украинские Форсированные (на речь компьютера Алекс)
#4 - English Forced (BD 2D)
#5 - English Full
#6 - English Full (+songs)
#7 - English SDH

Внешние (UTF-8):
#1 - Русские Форсированные [Ash61 v.1] (включены по умолчанию)
#2 - Русские Полные (по оф. дубляжу)
#3 - Украинские Форсированные (на речь компьютера Алекс)
General
Unique ID : 186850113889686102826719408817041624379 (0x8C9205DFBD1988F98F29EC840E74CD3B)
Complete name : D:ValerianAndTheCityOfAThousandPlanets(2017)3D-halfOU(Ash61)VOValerianAndTheCityOfAThousandPlanets(2017)3D-halfOU(Ash61)VO.mkv
Format : Matroska
Format version : Version 2
File size : 11.0 GiB
Duration : 2 h 17 min
Overall bit rate : 11.4 Mb/s
Movie name : Валериан и город тысячи планет / Valerian and the City of a Thousand Planets (2017) in 3D
Encoded date : UTC 2017-11-19 01:37:00
Writing application : mkvmerge v5.8.0 ('No Sleep / Pillow') built on Sep 2 2012 15:37:04
Writing library : libebml v1.2.3 + libmatroska v1.3.0

Video
ID : 1
Format : AVC
Format/Info : Advanced Video Codec
Format profile : High@L4.1
Format settings, CABAC : Yes
Format settings, RefFrames : 4 frames
Codec ID : V_MPEG4/ISO/AVC
Duration : 2 h 17 min
Bit rate : 10 000 kb/s
Width : 1 920 pixels
Height : 1 080 pixels
Display aspect ratio : 16:9
Frame rate mode : Constant
Frame rate : 23.976 (24000/1001) FPS
Color space : YUV
Chroma subsampling : 4:2:0
Bit depth : 8 bits
Scan type : Progressive
Bits/(Pixel*Frame) : 0.201
Stream size : 9.33 GiB (85%)
Title : BDRip by Ash61 (from BD 3D Nor)
Writing library : x264 core 146 r2538 121396c
Encoding settings : cabac=1 / ref=4 / deblock=1:-3:-3 / analyse=0x3:0x113 / me=umh / subme=10 / psy=1 / psy_rd=1.00:0.00 / mixed_ref=1 / me_range=32 / chroma_me=1 / trellis=2 / 8x8dct=1 / cqm=0 / deadzone=21,11 / fast_pskip=0 / chroma_qp_offset=-2 / threads=12 / lookahead_threads=2 / sliced_threads=0 / nr=0 / decimate=0 / interlaced=0 / bluray_compat=0 / constrained_intra=0 / bframes=8 / b_pyramid=2 / b_adapt=2 / b_bias=0 / direct=3 / weightb=1 / open_gop=0 / weightp=2 / keyint=250 / keyint_min=23 / scenecut=40 / intra_refresh=0 / rc_lookahead=60 / rc=2pass / mbtree=0 / bitrate=10000 / ratetol=1.0 / qcomp=0.70 / qpmin=0 / qpmax=69 / qpstep=4 / cplxblur=20.0 / qblur=0.5 / vbv_maxrate=40000 / vbv_bufsize=30000 / nal_hrd=none / filler=0 / frame-packing=4 / ip_ratio=1.40 / pb_ratio=1.30 / aq=1:0.70
Language : English
Default : Yes
Forced : No

Audio #1
ID : 2
Format : AC-3
Format/Info : Audio Coding 3
Format settings, Endianness : Big
Codec ID : A_AC3
Duration : 2 h 17 min
Bit rate mode : Constant
Bit rate : 640 kb/s
Channel(s) : 6 channels
Channel positions : Front: L C R, Side: L R, LFE
Sampling rate : 48.0 kHz
Frame rate : 31.250 FPS (1536 SPF)
Bit depth : 16 bits
Compression mode : Lossy
Stream size : 627 MiB (6%)
Title : Любительский одноголосый закадровый (монтаж - Ash61)
Language : Russian
Service kind : Complete Main
Default : Yes
Forced : No

Audio #2
ID : 3
Format : AC-3
Format/Info : Audio Coding 3
Format settings, Endianness : Big
Codec ID : A_AC3
Duration : 2 h 17 min
Bit rate mode : Constant
Bit rate : 192 kb/s
Channel(s) : 2 channels
Channel positions : Front: L R
Sampling rate : 48.0 kHz
Frame rate : 31.250 FPS (1536 SPF)
Bit depth : 16 bits
Compression mode : Lossy
Stream size : 188 MiB (2%)
Title : Дубляж - Line (моно) (от Hurtom)
Language : Ukrainian
Service kind : Complete Main
Default : No
Forced : No

Audio #3
ID : 4
Format : AC-3
Format/Info : Audio Coding 3
Format settings, Endianness : Big
Codec ID : A_AC3
Duration : 2 h 17 min
Bit rate mode : Constant
Bit rate : 640 kb/s
Channel(s) : 6 channels
Channel positions : Front: L C R, Side: L R, LFE
Sampling rate : 48.0 kHz
Frame rate : 31.250 FPS (1536 SPF)
Bit depth : 16 bits
Compression mode : Lossy
Stream size : 627 MiB (6%)
Title : Original - BD 3D Nor
Language : English
Service kind : Complete Main
Default : No
Forced : No

Text #1
ID : 5
Format : UTF-8
Codec ID : S_TEXT/UTF8
Codec ID/Info : UTF-8 Plain Text
Title : Форсированные (Ash61)
Language : Russian
Default : Yes
Forced : No

Text #2
ID : 6
Format : UTF-8
Codec ID : S_TEXT/UTF8
Codec ID/Info : UTF-8 Plain Text
Title : Полные (по дубляжу набил Ash61)
Language : Russian
Default : No
Forced : No

Text #3
ID : 7
Format : UTF-8
Codec ID : S_TEXT/UTF8
Codec ID/Info : UTF-8 Plain Text
Title : Форсированные (на речь компьютера Алекс) (от Hurtom)
Language : Ukrainian
Default : No
Forced : No

Text #4
ID : 8
Format : UTF-8
Codec ID : S_TEXT/UTF8
Codec ID/Info : UTF-8 Plain Text
Title : Forced (BD 3D Nor)
Language : English
Default : No
Forced : No

Text #5
ID : 9
Format : UTF-8
Codec ID : S_TEXT/UTF8
Codec ID/Info : UTF-8 Plain Text
Title : Full
Language : English
Default : No
Forced : No

Text #6
ID : 10
Format : UTF-8
Codec ID : S_TEXT/UTF8
Codec ID/Info : UTF-8 Plain Text
Title : Full (with songs)
Language : English
Default : No
Forced : No

Text #7
ID : 11
Format : UTF-8
Codec ID : S_TEXT/UTF8
Codec ID/Info : UTF-8 Plain Text
Title : SDH
Language : English
Default : No
Forced : No

Menu
00:00:00.000 : : 1
00:17:30.925 : : 2
00:34:12.342 : : 3
00:51:16.699 : : 4
01:07:59.742 : : 5
01:26:10.332 : : 6
01:40:22.725 : : 7
01:58:47.871 : : 8

Вне форума Profile PM
Вверх
Показать сообщения:    
Ответить на тему Вверх
Список форумов ivbox.me » 3D видео » Кинофильмы (3D) » Валериан и город тысячи планет 3Д/ Valerian and the City of a Thousand Planets 3D [2017 г., фантастика, фэнтези, боевик, приключения] Half OverUnder / Вертикальная анаморфная стереопара

Текущее время: 17-Дек 05:11

Часовой пояс: GMT + 3


Вы не можете начинать темы
Вы не можете отвечать на сообщения
Вы не можете редактировать свои сообщения
Вы не можете удалять свои сообщения
Вы не можете голосовать в опросах
Вы не можете прикреплять файлы к сообщениям
Вы не можете скачивать файлы