Loading...
Error
Фрилич! «КАЧАЙ И РАЗДАВАЙ». Скачанное не засчитывается!
Регистрация
Имя:     Пароль:  
Забыли пароль?

Мир Наизнанку (1-9 сезон: 1-130 выпуски из 130) [2011-2017 г., Документальный, путешествие, туризм , WEB-DLRip]

Список форумов ivbox.me » Документальные фильмы » Мир Наизнанку (1-9 сезон: 1-130 выпуски из 130) [2011-2017 г., Документальный, путешествие, туризм , WEB-DLRip]
Ответить на тему Вниз
Статистика раздачи
Нет
 
     
Сделать раздачу рекомендованной:  Подтвердите 
 
Автор Сообщение

mihis

Сид-бонус: 4810048

 10 МБ/с   10 МБ/с

Стаж: 5 лет 1 месяц

Сообщений: 565

Откуда: Иваново

Награды: Нет

Рейтинг: 18546,37
Скачано:  78,9 ГБ
Отдано:  726,439 ТБ
на своих 640,347 ТБ
бонус:  62,294 ТБ
Доступно 4,652 ПБ

post 28-Янв-2018 19:30 (5 месяцев 24 дня назад)

Quote

Мир Наизнанку
1-9 сезон: 1-130 выпуски из 130


Название: Мир Наизнанку
Год выхода: 2011-2017
Жанр: Документальный, путешествие, туризм
Режиссер: Дмитрий Комаров
Ведущий: Дмитрий Комаров

О фильме:
Каждый сезон программы «Мира наизнанку» представляет собой серию программ, посвященных одной отдельно взятой стране либо одному географическому региону. Программа посвящена жизни, работе, отдыху, привычкам, обрядам и национальным особенностям народов различных стран. Путешествие по одной стране или региону продолжается по несколько месяцев, в ходе которых съемочная группа пытается показать зрителю не туристические стороны данного региона, а самобытную культуру местного населения.

Страна: Украина
Студия: 1+1 Production
Продолжительность: 130х ~ 00:55:00
Перевод: Русский, украинский

Качество: WEB-DLRip
Кодек: XviD
Видео: 720x400 (1.80:1), 25 fps, XviD build 73 ~1497 kbps avg, 0.21 bit/pixel
Звук: 44.100 kHz, MPEG Layer 3, 2 ch, ~128.00 kbps avg
Субтитры: нет
1 Сезон (Камбоджа)
01.Озеро Танлесап
02.Королевство Камбоджа
03.Добыча рубинов
04.Пномпень
05.Бамбуковый поезд
06.Ангкор
07.Красные кхмеры

2 Сезон (Индия)
01.Дели
02.Варанаси ч1
03.Варанаси ч2
04.Амритсар
05.Дхарамсала
06.Малый Тибет
07.Матура
08.Пустыня Тар
09.Бомбей
10.Мумбаи
11.Качин
12.Каньякумари
13.Индийская солянка
14.Гоа
15.Джайпур
16.Тадж-Махал

3 Сезон (Африка)
01.Танзания, Эфиопия и Кения
02.Охота на льва
03.Кения
04.Масаи
05.Сафари
06.Килиманджаро
07.Крокодилья ферма
08.Дар-ес-Салам
09.Занзибар
10.Долина реки Омо
11.Эфиопия
12.Северная Эфиопия
13.Аддис-Абеба
14.Шашемене
15.Танзания

4 Сезон (Вьетнам)
01.Индокитай
02.Племья Мнонгов
03.Гонки велорикш
04.Город-курорт Нячанг
05.Вьетнамская война
06.Пригововление самого дорогого кофе
07.Жизнь на плаву
08.Река Меконг
09.Ханой
10.Фантастический театр на воде
11.Караоке в Ханое
12.Курортный городок Сапа
13.Северный Вьетнам
14.Бухта Халонг
15.Карида по-Вьетнамски
16.Нетуристические Ханойские уголки
17.Мегаполис Хошимин
18.Город Муйне
19.Хюе - древняя столица

5 Сезон (Индонезия)
01.Новая Гвинея ч1
02.Новая Гвинея ч2
03.Племя Короваи
04.Тараджи
05.Остров Сулавеси
06.Вамен ч1
07.Вамен ч2
08.Традиции племя Дани
09.Человек дерево
10.Миру Бетери
11.Мумии Папуа
12.Долина Балием
13.Сулавеси и Калимантан
14.Калимантан
15.Остров Ява
16.Гражданин Мира
17.Бали и массовая кремация
18.Бали
19.Неизвестные года Обамы
20.Первичный небоскреб
21.Джакарта
22.Плантации Бали

6 Сезон (Латинская Америка)
01.Нетуристическая Мексика
02.Женщина-вампир
03.Город Текила
04.Жизнь и смерть в Мехико
05.Знакомство с Мексикой
06.День мертвых
07.Спецоперация Куба
08.Путешествие Кубой
09.Гавана
10.Менониты
11.Путешествие Мексикой
12.Великая Мексикано-Кубинская экспедиция

7 Сезон (Боливия)
01.Самое опасное место на планете
02.Город Потоси
03.Самая высокая столица
04.Солончак Уюни
05.Плантации коки
06.Ярмарка чудес
07.Охота на пираний и крокодилов
08.Проклятие Че Гевары
09.Восхождение на Уайна Потоси

8 Сезон (Непал)
01.Приключения в диких джунглях
02.Авиакатастрофа в Гималаях
03.Жизнь под землетрясениями
04.Знакомство из '' Маленьким Буддой ''
05.Экспедиция по Эвересту ч1
06.Экспедиция по Эвересту ч2
07.Экспедиция по Эвересту ч3
08.Экспедиция по Эвересту ч4
09.Экспедиция по Эвересту ч5
10.Экспедиция по Эвересту ч6
11.Праздник в Катманду и дикие джунгли на границе с Индией.
12.Встреча самых известных звезд Непала и знакомство с живой богиней.
13.Кремация чиновника, храм Камасутры, король Мустанга и Тибетский Новый Год.
14.Запретное королевство Мустанг.
15.Восхождение на Айленд-пик и закадровая жизнь проекта.

9 Сезон (Япония)
01.Страна сакуры
02.Город роботов
03.Аниме
04.Тайны секс индустрии
05.Семья в оренду
06.Восхождение на Фудзияму и изобретатель караоке
07.землетрясения в Японии и взрыв на АЭС Фукусима
08.Как выглядит АЭС Фукусима сегодня
09.Кровавое озеро и закапывание в вулканический песок
10.Секрет долголетия японцев и охота на змею
11.Хиросима и Нагасаки: истории выживших
12.Тайны преступного клана якудза
13.Японский Робинзон Крузо и Наритський аэропорт
14.Японский шоу-бизнес и соревнования в бассейне из грязи
15.Поединок с борцом сумо и секреты гейш
Общее
Полное имя : E:\Video\Mir naiznanku WEB-DLRip_kinozal.tv_by_Lyossik\9 sezon\Mir naiznanku 9 (01 vypusk)(2017).WEB-DLRip.avi
Формат : AVI
Формат/Информация : Audio Video Interleave
Размер файла : 711 Мбайт
Продолжительность : 1 ч. 0 м.
Общий поток : 1635 Кбит/сек
Программа кодирования : VirtualDubMod 1.5.10.3 | www.virtualdub-fr.org || (build 2550/release)
Библиотека кодирования : VirtualDubMod build 2550/release

Видео
Идентификатор : 0
Формат : MPEG-4 Visual
Профиль формата : Advanced Simple@L5
Параметр BVOP формата : 2
Параметр QPel формата : Нет
Параметр GMC формата : Без точки перехода
Параметр матрицы формата : Default (H.263)
Идентификатор кодека : XVID
Идентификатор кодека/Подсказка : XviD
Продолжительность : 1 ч. 0 м.
Битрейт : 1497 Кбит/сек
Ширина : 720 пикселей
Высота : 400 пикселей
Соотношение сторон : 16:9
Частота кадров : 25,000 кадров/сек
Цветовое пространство : YUV
Субдискретизация насыщенности : 4:2:0
Битовая глубина : 8 бит
Тип развёртки : Прогрессивная
Метод сжатия : С потерями
Бит/(Пиксели*Кадры) : 0.208
Размер потока : 652 Мбайт (92%)
Библиотека кодирования : XviD 73

Аудио
Идентификатор : 1
Формат : MPEG Audio
Версия формата : Version 1
Профиль формата : Layer 3
Режим : Joint stereo
Расширение режима : MS Stereo
Идентификатор кодека : 55
Идентификатор кодека/Подсказка : MP3
Продолжительность : 1 ч. 0 м.
Вид битрейта : Постоянный
Битрейт : 128 Кбит/сек
Каналы : 2 канала
Частота : 44,1 КГц
Метод сжатия : С потерями
Размер потока : 55,7 Мбайт (8%)
Выравнивание : Разделение по промежуткам
Продолжительность промежутка : 40 мс. (1,00 видеокадр)
Время предзагрузки промежутка : 500 мс.
Библиотека кодирования : LAME3.99r
Настройки программы : -m j -V 4 -q 2 -lowpass 17 -b 128
Вне форума Profile PM
Вверх
Показать сообщения:    
Ответить на тему Вверх
Список форумов ivbox.me » Документальные фильмы » Мир Наизнанку (1-9 сезон: 1-130 выпуски из 130) [2011-2017 г., Документальный, путешествие, туризм , WEB-DLRip]

Текущее время: 22-Июл 02:01

Часовой пояс: GMT + 3


Вы не можете начинать темы
Вы не можете отвечать на сообщения
Вы не можете редактировать свои сообщения
Вы не можете удалять свои сообщения
Вы не можете голосовать в опросах
Вы не можете прикреплять файлы к сообщениям
Вы не можете скачивать файлы