Loading...
Error
Фрилич! «КАЧАЙ И РАЗДАВАЙ». Скачанное не засчитывается!
Регистрация
Имя:     Пароль:  
Забыли пароль?

[Ballads, Classic Rock, Blues, Pop] Simply Power Ballads (2016), FLAC (tracks)

Список форумов ivbox.me » Музыка Lossless » [Ballads, Classic Rock, Blues, Pop] Simply Power Ballads (2016), FLAC (tracks)
Ответить на тему Вниз
Статистика раздачи
Нет
 
     
Сделать раздачу рекомендованной:  Подтвердите 
 
Автор Сообщение

Михалыч

Сид-бонус: 1223128

 2 МБ/с   2 МБ/с

Стаж: 10 лет

Сообщений: 5796

Откуда: Шуя-город

Награды: Нет

Рейтинг: 1039,47
Скачано:  1,32 ТБ
Отдано:  728,391 ТБ
на своих 606,756 ТБ
бонус:  37,168 ТБ
Доступно 4,466 ПБ

post 21-Апр-2018 16:17 (3 месяца 2 дня назад)

Quote

Simply Power Ballads



Страна: All World
Издатель (лейбл):
Union Square Music Ltd Номер по каталогу: SIMPLYD112
Жанр: Ballads, Classic Rock, Blues, Pop
Год выпуска: 2016
Формат: FLAC (tracks)
Продолжительность: 04:58:44
Трэклист:
01. Whitesnake - Is This Love? (4:43)
02. Foreigner - I Want To Know What Love Is (4:58)
03. Peter Cetera - Glory Of Love (4:20)
04. Thunder - Love Walked In (6:25)
05. Chicago - Hard Habit To Break (4:44)
06. Nazareth - Dream On (3:26)
07. Uriah Heep - Lady In Black (4:43)
08. Bonnie Tyler - It's A Heartache (3:31)
09. James Blunt - High (3:59)
10. Anastacia - One (3:50)
11. Jack Savoretti - Home (3:05)
12. Des'ree - Feel So High (3:53)
13. En Vogue - Don't Let Go (4:53)
14. Natalie Imbruglia - Torn (4:05)
15. Tasmin Archer - Sleeping Satellite (4:08)
16. Everything But The Girl - I Don't Want To Talk About It (4:17)
17. The Korgis - Everybody's Got To Learn Sometime (4:21)
18. Erasure - Always (4:01)
Exact Audio Copy V1.1 from 23. June 2015
EAC extraction logfile from 16. April 2018, 23:49
Various Artists / Simply Power Ballads CD1
Used drive  : ASUS    DRW-24D5MT   Adapter: 1  ID: 0
Read mode               : Secure
Utilize accurate stream : Yes
Defeat audio cache      : Yes
Make use of C2 pointers : No
Read offset correction                      : 6
Overread into Lead-In and Lead-Out          : No
Fill up missing offset samples with silence : Yes
Delete leading and trailing silent blocks   : No
Null samples used in CRC calculations       : Yes
Used interface                              : Native Win32 interface for Win NT & 2000
Gap handling                                : Appended to previous track
Used output format              : User Defined Encoder
Selected bitrate                : 768 kBit/s
Quality                         : High
Add ID3 tag                     : No
Command line compressor         : F:\Программы\Exact Audio Copy\FLAC\FLAC.EXE
Additional command line options : -6 -V -T "ARTIST=%artist%" -T "TITLE=%title%" -T "ALBUM=%albumtitle%" -T "DATE=%year%" -T "TRACKNUMBER=%tracknr%" -T "GENRE=%genre%" -T "COMMENT=Ripped by grandsrt8" -T "BAND=%albuminterpret%" -T "ALBUMARTIST=%albuminterpret%" -T "COMPOSER=%composer%" %haslyrics%--tag-from-file=LYRICS="%lyricsfile%"%haslyrics% -T "DISCNUMBER=%cdnumber%" -T "TOTALDISCS=%totalcds%" -T "TOTALTRACKS=%numtracks%" %hascover%--picture="%coverfile%"%hascover% %source% -o %dest%
TOC of the extracted CD
     Track |   Start  |  Length  | Start sector | End sector
    ---------------------------------------------------------
        1  |  0:00.00 |  4:43.16 |         0    |    21240
        2  |  4:43.16 |  4:57.51 |     21241    |    43566
        3  |  9:40.67 |  4:19.70 |     43567    |    63061
        4  | 14:00.62 |  6:24.70 |     63062    |    91931
        5  | 20:25.57 |  4:43.45 |     91932    |   113201
        6  | 25:09.27 |  3:25.70 |    113202    |   128646
        7  | 28:35.22 |  4:43.32 |    128647    |   149903
        8  | 33:18.54 |  3:31.00 |    149904    |   165728
        9  | 36:49.54 |  3:59.34 |    165729    |   183687
       10  | 40:49.13 |  3:50.21 |    183688    |   200958
       11  | 44:39.34 |  3:04.58 |    200959    |   214816
       12  | 47:44.17 |  3:53.19 |    214817    |   232310
       13  | 51:37.36 |  4:52.50 |    232311    |   254260
       14  | 56:30.11 |  4:05.10 |    254261    |   272645
       15  | 60:35.21 |  4:07.53 |    272646    |   291223
       16  | 64:42.74 |  4:16.58 |    291224    |   310481
       17  | 68:59.57 |  4:21.24 |    310482    |   330080
       18  | 73:21.06 |  4:00.63 |    330081    |   348143
Track  1
     Filename F:\Rips grandsrt8\01. Whitesnake - Is This Love.wav
     Pre-gap length  0:00:02.00
     Peak level 99.7 %
     Extraction speed 1.6 X
     Track quality 99.9 %
     Test CRC 415879A4
     Copy CRC 415879A4
     Track not present in AccurateRip database
     Copy OK
Track  2
     Filename F:\Rips grandsrt8\02. Foreigner - I Want To Know What Love Is.wav
     Pre-gap length  0:00:01.53
     Peak level 91.9 %
     Extraction speed 2.3 X
     Track quality 100.0 %
     Test CRC 8C9F0D32
     Copy CRC 8C9F0D32
     Track not present in AccurateRip database
     Copy OK
Track  3
     Filename F:\Rips grandsrt8\03. Peter Cetera - Glory Of Love.wav
     Pre-gap length  0:00:01.26
     Peak level 88.1 %
     Extraction speed 1.9 X
     Track quality 99.9 %
     Test CRC 4233378D
     Copy CRC 4233378D
     Track not present in AccurateRip database
     Copy OK
Track  4
     Filename F:\Rips grandsrt8\04. Thunder - Love Walked In.wav
     Pre-gap length  0:00:01.60
     Peak level 97.7 %
     Extraction speed 2.8 X
     Track quality 100.0 %
     Test CRC 6B0F3A10
     Copy CRC 6B0F3A10
     Track not present in AccurateRip database
     Copy OK
Track  5
     Filename F:\Rips grandsrt8\05. Chicago - Hard Habit To Break.wav
     Pre-gap length  0:00:01.46
     Peak level 97.7 %
     Extraction speed 2.9 X
     Track quality 100.0 %
     Test CRC 3AEA46F3
     Copy CRC 3AEA46F3
     Track not present in AccurateRip database
     Copy OK
Track  6
     Filename F:\Rips grandsrt8\06. Nazareth - Dream On.wav
     Pre-gap length  0:00:01.17
     Peak level 97.7 %
     Extraction speed 2.9 X
     Track quality 100.0 %
     Test CRC 093B8C67
     Copy CRC 093B8C67
     Track not present in AccurateRip database
     Copy OK
Track  7
     Filename F:\Rips grandsrt8\07. Uriah Heep - Lady In Black.wav
     Pre-gap length  0:00:01.07
     Peak level 97.7 %
     Extraction speed 3.1 X
     Track quality 100.0 %
     Test CRC 3E6F529C
     Copy CRC 3E6F529C
     Track not present in AccurateRip database
     Copy OK
Track  8
     Filename F:\Rips grandsrt8\08. Bonnie Tyler - It's A Heartache.wav
     Pre-gap length  0:00:01.37
     Peak level 99.3 %
     Extraction speed 3.2 X
     Track quality 100.0 %
     Test CRC 8D73CAEE
     Copy CRC 8D73CAEE
     Track not present in AccurateRip database
     Copy OK
Track  9
     Filename F:\Rips grandsrt8\09. James Blunt - High.wav
     Pre-gap length  0:00:01.17
     Peak level 89.0 %
     Extraction speed 3.3 X
     Track quality 100.0 %
     Test CRC 1A3B2CB7
     Copy CRC 1A3B2CB7
     Track not present in AccurateRip database
     Copy OK
Track 10
     Filename F:\Rips grandsrt8\10. Anastacia - One.wav
     Pre-gap length  0:00:01.22
     Peak level 89.1 %
     Extraction speed 3.4 X
     Track quality 100.0 %
     Test CRC 3AB24341
     Copy CRC 3AB24341
     Track not present in AccurateRip database
     Copy OK
Track 11
     Filename F:\Rips grandsrt8\11. Jack Savoretti - Home.wav
     Pre-gap length  0:00:01.15
     Peak level 97.7 %
     Extraction speed 3.4 X
     Track quality 100.0 %
     Test CRC 907AF246
     Copy CRC 907AF246
     Track not present in AccurateRip database
     Copy OK
Track 12
     Filename F:\Rips grandsrt8\12. Des'ree - Feel So High.wav
     Pre-gap length  0:00:02.04
     Peak level 98.2 %
     Extraction speed 3.6 X
     Track quality 100.0 %
     Test CRC 0E0A424E
     Copy CRC 0E0A424E
     Track not present in AccurateRip database
     Copy OK
Track 13
     Filename F:\Rips grandsrt8\13. En Vogue - Don't Let Go.wav
     Pre-gap length  0:00:01.08
     Peak level 96.6 %
     Extraction speed 3.8 X
     Track quality 100.0 %
     Test CRC 170A3EB8
     Copy CRC 170A3EB8
     Track not present in AccurateRip database
     Copy OK
Track 14
     Filename F:\Rips grandsrt8\14. Natalie Imbruglia - Torn.wav
     Pre-gap length  0:00:01.12
     Peak level 95.4 %
     Extraction speed 3.9 X
     Track quality 100.0 %
     Test CRC A6C6E991
     Copy CRC A6C6E991
     Track not present in AccurateRip database
     Copy OK
Track 15
     Filename F:\Rips grandsrt8\15. Tasmin Archer - Sleeping Satellite.wav
     Pre-gap length  0:00:01.21
     Peak level 97.6 %
     Extraction speed 4.0 X
     Track quality 100.0 %
     Test CRC 838D397A
     Copy CRC 838D397A
     Track not present in AccurateRip database
     Copy OK
Track 16
     Filename F:\Rips grandsrt8\16. Everything But The Girl - I Don't Want To Talk About It.wav
     Pre-gap length  0:00:02.40
     Peak level 100.0 %
     Extraction speed 4.1 X
     Track quality 100.0 %
     Test CRC D917260E
     Copy CRC D917260E
     Track not present in AccurateRip database
     Copy OK
Track 17
     Filename F:\Rips grandsrt8\17. The Korgis - Everybody's Got To Learn Sometime.wav
     Pre-gap length  0:00:01.33
     Peak level 97.7 %
     Extraction speed 4.2 X
     Track quality 100.0 %
     Test CRC EAC27F81
     Copy CRC EAC27F81
     Track not present in AccurateRip database
     Copy OK
Track 18
     Filename F:\Rips grandsrt8\18. Erasure - Always.wav
     Pre-gap length  0:00:01.21
     Peak level 91.8 %
     Extraction speed 4.2 X
     Track quality 100.0 %
     Test CRC 82DCFF55
     Copy CRC 82DCFF55
     Track not present in AccurateRip database
     Copy OK
None of the tracks are present in the AccurateRip database
No errors occurred
End of status report
---- CUETools DB Plugin V2.1.6
[CTDB TOCID: aDD4lDFtKyjZheEPhLfRpahC6aE-] found
Submit result: aDD4lDFtKyjZheEPhLfRpahC6aE- has been confirmed
Track | CTDB Status
  1   | (3/3) Accurately ripped
  2   | (3/3) Accurately ripped
  3   | (3/3) Accurately ripped
  4   | (3/3) Accurately ripped
  5   | (3/3) Accurately ripped
  6   | (3/3) Accurately ripped
  7   | (3/3) Accurately ripped
  8   | (3/3) Accurately ripped
  9   | (3/3) Accurately ripped
 10   | (3/3) Accurately ripped
 11   | (3/3) Accurately ripped
 12   | (3/3) Accurately ripped
 13   | (3/3) Accurately ripped
 14   | (3/3) Accurately ripped
 15   | (3/3) Accurately ripped
 16   | (3/3) Accurately ripped
 17   | (3/3) Accurately ripped
 18   | (3/3) Accurately ripped
==== Log checksum 7E84AE938B7D46E163F92BA2DB0EF0747CD27ED30EDD6213941DAB78E3A6A4A7 ====
01. Frankie Goes To Hollywood - The Power Of Love (5:30)
02. Marc Cohn - Walking In Memphis (4:16)
03. Yes - Owner Of A Lonely Heart (4:25)
04. Alannah Myles - Black Velvet (4:47)
05. Roxette - It Must Have Been Love (4:20)
06. Billy Ocean - Suddenly (3:52)
07. Spandau Ballet - True (5:32)
08. Inspiral Carpets - This Is How It Feels (3:12)
09. Alison Moyet - Is This Love? (3:58)
10. Labi Siffre - Something Inside So Strong (4:18)
11. Cilla Black - Anyone Who Had A Heart (2:50)
12. Lisa Stansfield - Lay Your Hands On Me (4:17)
13. Jason Donovan - Sealed With A Kiss (2:34)
14. Randy Crawford - You Might Need Somebody (4:15)
15. Simply Red - If You Don't Know Me By Now (3:25)
16. The Temper Trap - Sweet Disposition (3:53)
17. Madness - It Must Be Love (3:21)
18. Emerson, Lake & Palmer - Still You Turn Me On (2:53)
Exact Audio Copy V1.1 from 23. June 2015
EAC extraction logfile from 17. April 2018, 19:00
Various Artists / Simply Power Ballads CD2
Used drive  : ASUS    DRW-24D5MT   Adapter: 1  ID: 0
Read mode               : Secure
Utilize accurate stream : Yes
Defeat audio cache      : Yes
Make use of C2 pointers : No
Read offset correction                      : 6
Overread into Lead-In and Lead-Out          : No
Fill up missing offset samples with silence : Yes
Delete leading and trailing silent blocks   : No
Null samples used in CRC calculations       : Yes
Used interface                              : Native Win32 interface for Win NT & 2000
Gap handling                                : Appended to previous track
Used output format              : User Defined Encoder
Selected bitrate                : 768 kBit/s
Quality                         : High
Add ID3 tag                     : No
Command line compressor         : F:\Программы\Exact Audio Copy\FLAC\FLAC.EXE
Additional command line options : -6 -V -T "ARTIST=%artist%" -T "TITLE=%title%" -T "ALBUM=%albumtitle%" -T "DATE=%year%" -T "TRACKNUMBER=%tracknr%" -T "GENRE=%genre%" -T "COMMENT=Ripped by grandsrt8" -T "BAND=%albuminterpret%" -T "ALBUMARTIST=%albuminterpret%" -T "COMPOSER=%composer%" %haslyrics%--tag-from-file=LYRICS="%lyricsfile%"%haslyrics% -T "DISCNUMBER=%cdnumber%" -T "TOTALDISCS=%totalcds%" -T "TOTALTRACKS=%numtracks%" %hascover%--picture="%coverfile%"%hascover% %source% -o %dest%
TOC of the extracted CD
     Track |   Start  |  Length  | Start sector | End sector
    ---------------------------------------------------------
        1  |  0:00.00 |  5:30.13 |         0    |    24762
        2  |  5:30.13 |  4:16.01 |     24763    |    43963
        3  |  9:46.14 |  4:25.28 |     43964    |    63866
        4  | 14:11.42 |  4:47.04 |     63867    |    85395
        5  | 18:58.46 |  4:20.00 |     85396    |   104895
        6  | 23:18.46 |  3:52.17 |    104896    |   122312
        7  | 27:10.63 |  5:31.59 |    122313    |   147196
        8  | 32:42.47 |  3:12.28 |    147197    |   161624
        9  | 35:55.00 |  3:57.45 |    161625    |   179444
       10  | 39:52.45 |  4:17.64 |    179445    |   198783
       11  | 44:10.34 |  2:49.46 |    198784    |   211504
       12  | 47:00.05 |  4:17.35 |    211505    |   230814
       13  | 51:17.40 |  2:34.21 |    230815    |   242385
       14  | 53:51.61 |  4:15.11 |    242386    |   261521
       15  | 58:06.72 |  3:24.38 |    261522    |   276859
       16  | 61:31.35 |  3:53.33 |    276860    |   294367
       17  | 65:24.68 |  3:20.64 |    294368    |   309431
       18  | 68:45.57 |  2:52.72 |    309432    |   322403
Track  1
     Filename F:\Rips grandsrt8\01. Frankie Goes To Hollywood - The Power Of Love.wav
     Pre-gap length  0:00:02.00
     Peak level 97.7 %
     Extraction speed 2.1 X
     Track quality 100.0 %
     Test CRC AEB54BA1
     Copy CRC AEB54BA1
     Track not present in AccurateRip database
     Copy OK
Track  2
     Filename F:\Rips grandsrt8\02. Marc Cohn - Walking In Memphis.wav
     Pre-gap length  0:00:01.12
     Peak level 97.7 %
     Extraction speed 2.3 X
     Track quality 100.0 %
     Test CRC 7959604D
     Copy CRC 7959604D
     Track not present in AccurateRip database
     Copy OK
Track  3
     Filename F:\Rips grandsrt8\03. Yes - Owner Of A Lonely Heart.wav
     Pre-gap length  0:00:01.37
     Peak level 97.7 %
     Extraction speed 2.5 X
     Track quality 100.0 %
     Test CRC 41C15675
     Copy CRC 41C15675
     Track not present in AccurateRip database
     Copy OK
Track  4
     Filename F:\Rips grandsrt8\04. Alannah Myles - Black Velvet.wav
     Pre-gap length  0:00:01.21
     Peak level 97.7 %
     Extraction speed 2.7 X
     Track quality 100.0 %
     Test CRC AB987CE3
     Copy CRC AB987CE3
     Track not present in AccurateRip database
     Copy OK
Track  5
     Filename F:\Rips grandsrt8\05. Roxette - It Must Have Been Love.wav
     Pre-gap length  0:00:00.56
     Peak level 97.7 %
     Extraction speed 2.8 X
     Track quality 100.0 %
     Test CRC D4F064F8
     Copy CRC D4F064F8
     Track not present in AccurateRip database
     Copy OK
Track  6
     Filename F:\Rips grandsrt8\06. Billy Ocean - Suddenly.wav
     Pre-gap length  0:00:01.64
     Peak level 97.7 %
     Extraction speed 2.9 X
     Track quality 100.0 %
     Test CRC 7ACD8A13
     Copy CRC 7ACD8A13
     Track not present in AccurateRip database
     Copy OK
Track  7
     Filename F:\Rips grandsrt8\07. Spandau Ballet - True.wav
     Pre-gap length  0:00:01.07
     Peak level 97.7 %
     Extraction speed 3.2 X
     Track quality 100.0 %
     Test CRC DF7D272A
     Copy CRC DF7D272A
     Track not present in AccurateRip database
     Copy OK
Track  8
     Filename F:\Rips grandsrt8\08. Inspiral Carpets - This Is How It Feels.wav
     Pre-gap length  0:00:01.49
     Peak level 84.1 %
     Extraction speed 3.1 X
     Track quality 100.0 %
     Test CRC 865A05D8
     Copy CRC 865A05D8
     Track not present in AccurateRip database
     Copy OK
Track  9
     Filename F:\Rips grandsrt8\09. Alison Moyet - Is This Love.wav
     Pre-gap length  0:00:00.74
     Peak level 91.2 %
     Extraction speed 3.3 X
     Track quality 100.0 %
     Test CRC 5B72874B
     Copy CRC 5B72874B
     Track not present in AccurateRip database
     Copy OK
Track 10
     Filename F:\Rips grandsrt8\10. Labi Siffre - Something Inside So Strong.wav
     Pre-gap length  0:00:01.29
     Peak level 97.7 %
     Extraction speed 3.5 X
     Track quality 100.0 %
     Test CRC E46294CA
     Copy CRC E46294CA
     Track not present in AccurateRip database
     Copy OK
Track 11
     Filename F:\Rips grandsrt8\11. Cilla Black - Anyone Who Had A Heart.wav
     Pre-gap length  0:00:01.19
     Peak level 97.7 %
     Extraction speed 2.3 X
     Track quality 99.9 %
     Test CRC A70E961A
     Copy CRC A70E961A
     Track not present in AccurateRip database
     Copy OK
Track 12
     Filename F:\Rips grandsrt8\12. Lisa Stansfield - Lay Your Hands On Me.wav
     Pre-gap length  0:00:01.60
     Peak level 88.1 %
     Extraction speed 3.7 X
     Track quality 100.0 %
     Test CRC BB99EC54
     Copy CRC BB99EC54
     Track not present in AccurateRip database
     Copy OK
Track 13
     Filename F:\Rips grandsrt8\13. Jason Donovan - Sealed With A Kiss.wav
     Pre-gap length  0:00:00.64
     Peak level 99.4 %
     Extraction speed 3.5 X
     Track quality 100.0 %
     Test CRC 63CD6D98
     Copy CRC 63CD6D98
     Track not present in AccurateRip database
     Copy OK
Track 14
     Filename F:\Rips grandsrt8\14. Randy Crawford - You Might Need Somebody.wav
     Pre-gap length  0:00:01.26
     Peak level 93.3 %
     Extraction speed 3.8 X
     Track quality 100.0 %
     Test CRC 310EBB54
     Copy CRC 310EBB54
     Track not present in AccurateRip database
     Copy OK
Track 15
     Filename F:\Rips grandsrt8\15. Simply Red - If You Don't Know Me By Now.wav
     Pre-gap length  0:00:01.39
     Peak level 97.7 %
     Extraction speed 2.8 X
     Track quality 99.9 %
     Test CRC A82B24F7
     Copy CRC A82B24F7
     Track not present in AccurateRip database
     Copy OK
Track 16
     Filename F:\Rips grandsrt8\16. The Temper Trap - Sweet Disposition.wav
     Pre-gap length  0:00:00.30
     Peak level 87.8 %
     Extraction speed 4.0 X
     Track quality 100.0 %
     Test CRC 3B15ADA1
     Copy CRC 3B15ADA1
     Track not present in AccurateRip database
     Copy OK
Track 17
     Filename F:\Rips grandsrt8\17. Madness - It Must Be Love.wav
     Pre-gap length  0:00:01.18
     Peak level 99.4 %
     Extraction speed 2.9 X
     Track quality 99.9 %
     Test CRC 92B35322
     Copy CRC 92B35322
     Track not present in AccurateRip database
     Copy OK
Track 18
     Filename F:\Rips grandsrt8\18. Emerson, Lake & Palmer - Still You Turn Me On.wav
     Pre-gap length  0:00:00.70
     Peak level 97.7 %
     Extraction speed 2.7 X
     Track quality 99.9 %
     Test CRC E59A4C0E
     Copy CRC E59A4C0E
     Track not present in AccurateRip database
     Copy OK
None of the tracks are present in the AccurateRip database
No errors occurred
End of status report
---- CUETools DB Plugin V2.1.6
[CTDB TOCID: _1SX9c1j_NrwoQ.ibXLmQ7.DB_I-] found
Submit result: _1SX9c1j_NrwoQ.ibXLmQ7.DB_I- has been confirmed
Track | CTDB Status
  1   | (3/3) Accurately ripped
  2   | (3/3) Accurately ripped
  3   | (3/3) Accurately ripped
  4   | (3/3) Accurately ripped
  5   | (3/3) Accurately ripped
  6   | (3/3) Accurately ripped
  7   | (3/3) Accurately ripped
  8   | (3/3) Accurately ripped
  9   | (3/3) Accurately ripped
 10   | (3/3) Accurately ripped
 11   | (3/3) Accurately ripped
 12   | (3/3) Accurately ripped
 13   | (3/3) Accurately ripped
 14   | (3/3) Accurately ripped
 15   | (3/3) Accurately ripped
 16   | (3/3) Accurately ripped
 17   | (3/3) Accurately ripped
 18   | (3/3) Accurately ripped
==== Log checksum F579669F517AF126BE87541B28E95B9A772D333A0A452F005D93C7F4A20CB94C ====
01. The Pretenders - I'll Stand By You (3:58)
02. Paula Cole - I Don't Want To Wait (5:13)
03. Daniel Powter - Bad Day (3:52)
04. Rumer - Slow (3:36)
05. Delilah - Shades Of Grey (3:50)
06. The Temper Trap - Trembling Hands (4:39)
07. Duran Duran - Ordinary World (5:37)
08. Andreas Johnson - Glorious (3:26)
09. Elkie Brooks - Broken Wings (4:55)
10. Thompson Twins - Hold Me Now (4:42)
11. Matchbox Twenty - If You're Gone (4:33)
12. Bad Company - Shooting Star (6:14)
13. Twisted Sister - The Price (3:45)
14. Nazareth - Love Hurts (3:51)
15. The Cars - Drive (3:54)
16. Bonnie Tyler - Here Am I (3:48)
17. Rick Astley - Cry For Help (4:50)
18. Mint Julips - Only Love Can Break Your Heart (3:25)
Exact Audio Copy V1.1 from 23. June 2015
EAC extraction logfile from 17. April 2018, 20:40
Various Artists / Simply Power Ballads CD3
Used drive  : ASUS    DRW-24D5MT   Adapter: 1  ID: 0
Read mode               : Secure
Utilize accurate stream : Yes
Defeat audio cache      : Yes
Make use of C2 pointers : No
Read offset correction                      : 6
Overread into Lead-In and Lead-Out          : No
Fill up missing offset samples with silence : Yes
Delete leading and trailing silent blocks   : No
Null samples used in CRC calculations       : Yes
Used interface                              : Native Win32 interface for Win NT & 2000
Gap handling                                : Appended to previous track
Used output format              : User Defined Encoder
Selected bitrate                : 768 kBit/s
Quality                         : High
Add ID3 tag                     : No
Command line compressor         : F:\Программы\Exact Audio Copy\FLAC\FLAC.EXE
Additional command line options : -6 -V -T "ARTIST=%artist%" -T "TITLE=%title%" -T "ALBUM=%albumtitle%" -T "DATE=%year%" -T "TRACKNUMBER=%tracknr%" -T "GENRE=%genre%" -T "COMMENT=Ripped by grandsrt8" -T "BAND=%albuminterpret%" -T "ALBUMARTIST=%albuminterpret%" -T "COMPOSER=%composer%" %haslyrics%--tag-from-file=LYRICS="%lyricsfile%"%haslyrics% -T "DISCNUMBER=%cdnumber%" -T "TOTALDISCS=%totalcds%" -T "TOTALTRACKS=%numtracks%" %hascover%--picture="%coverfile%"%hascover% %source% -o %dest%
TOC of the extracted CD
     Track |   Start  |  Length  | Start sector | End sector
    ---------------------------------------------------------
        1  |  0:00.00 |  3:58.00 |         0    |    17849
        2  |  3:58.00 |  5:12.63 |     17850    |    41312
        3  |  9:10.63 |  3:52.07 |     41313    |    58719
        4  | 13:02.70 |  3:36.07 |     58720    |    74926
        5  | 16:39.02 |  3:50.12 |     74927    |    92188
        6  | 20:29.14 |  4:38.50 |     92189    |   113088
        7  | 25:07.64 |  5:36.44 |    113089    |   138332
        8  | 30:44.33 |  3:26.37 |    138333    |   153819
        9  | 34:10.70 |  4:54.57 |    153820    |   175926
       10  | 39:05.52 |  4:42.06 |    175927    |   197082
       11  | 43:47.58 |  4:33.12 |    197083    |   217569
       12  | 48:20.70 |  6:14.09 |    217570    |   245628
       13  | 54:35.04 |  3:45.00 |    245629    |   262503
       14  | 58:20.04 |  3:50.71 |    262504    |   279824
       15  | 62:11.00 |  3:53.70 |    279825    |   297369
       16  | 66:04.70 |  3:47.73 |    297370    |   314467
       17  | 69:52.68 |  4:50.15 |    314468    |   336232
       18  | 74:43.08 |  3:25.01 |    336233    |   351608
Track  1
     Filename F:\Rips grandsrt8\01. The Pretenders - I'll Stand By You.wav
     Pre-gap length  0:00:02.00
     Peak level 97.7 %
     Extraction speed 2.0 X
     Track quality 100.0 %
     Test CRC B6E8C68C
     Copy CRC B6E8C68C
     Track not present in AccurateRip database
     Copy OK
Track  2
     Filename F:\Rips grandsrt8\02.  Paula Cole - I Don't Want To Wait.wav
     Pre-gap length  0:00:01.15
     Peak level 96.8 %
     Extraction speed 2.2 X
     Track quality 100.0 %
     Test CRC 6E2F05FC
     Copy CRC 6E2F05FC
     Track not present in AccurateRip database
     Copy OK
Track  3
     Filename F:\Rips grandsrt8\03.  Daniel Powter - Bad Day.wav
     Pre-gap length  0:00:00.13
     Peak level 78.5 %
     Extraction speed 1.8 X
     Track quality 99.9 %
     Test CRC 60494D5E
     Copy CRC 60494D5E
     Track not present in AccurateRip database
     Copy OK
Track  4
     Filename F:\Rips grandsrt8\04.  Rumer -  Slow.wav
     Pre-gap length  0:00:00.11
     Peak level 97.7 %
     Extraction speed 1.8 X
     Track quality 99.9 %
     Test CRC 22478EE4
     Copy CRC 22478EE4
     Track not present in AccurateRip database
     Copy OK
Track  5
     Filename F:\Rips grandsrt8\05. Delilah -  Shades Of Grey.wav
     Pre-gap length  0:00:00.36
     Peak level 84.1 %
     Extraction speed 2.6 X
     Track quality 100.0 %
     Test CRC 4D1A29E9
     Copy CRC 4D1A29E9
     Track not present in AccurateRip database
     Copy OK
Track  6
     Filename F:\Rips grandsrt8\06. The Temper Trap - Trembling Hands.wav
     Pre-gap length  0:00:00.02
     Peak level 88.1 %
     Extraction speed 2.8 X
     Track quality 100.0 %
     Test CRC 05B3BF53
     Copy CRC 05B3BF53
     Track not present in AccurateRip database
     Copy OK
Track  7
     Filename F:\Rips grandsrt8\07. Duran Duran - Ordinary World.wav
     Pre-gap length  0:00:00.15
     Peak level 97.7 %
     Extraction speed 3.1 X
     Track quality 100.0 %
     Test CRC AC054BC9
     Copy CRC AC054BC9
     Track not present in AccurateRip database
     Copy OK
Track  8
     Filename F:\Rips grandsrt8\08. Andreas Johnson - Glorious.wav
     Pre-gap length  0:00:00.07
     Peak level 93.3 %
     Extraction speed 2.2 X
     Track quality 99.9 %
     Test CRC FC656947
     Copy CRC FC656947
     Track not present in AccurateRip database
     Copy OK
Track  9
     Filename F:\Rips grandsrt8\09. Elkie Brooks - Broken Wings.wav
     Pre-gap length  0:00:00.08
     Peak level 97.7 %
     Extraction speed 3.3 X
     Track quality 100.0 %
     Test CRC C25C5D5C
     Copy CRC C25C5D5C
     Track not present in AccurateRip database
     Copy OK
Track 10
     Filename F:\Rips grandsrt8\10. Thompson Twins - Hold Me Now.wav
     Pre-gap length  0:00:00.16
     Peak level 97.7 %
     Extraction speed 3.4 X
     Track quality 100.0 %
     Test CRC 72CA06FA
     Copy CRC 72CA06FA
     Track not present in AccurateRip database
     Copy OK
Track 11
     Filename F:\Rips grandsrt8\11. Matchbox Twenty -  If You're Gone.wav
     Pre-gap length  0:00:00.07
     Peak level 87.3 %
     Extraction speed 3.5 X
     Track quality 100.0 %
     Test CRC C3EAC3A0
     Copy CRC C3EAC3A0
     Track not present in AccurateRip database
     Copy OK
Track 12
     Filename F:\Rips grandsrt8\12. Bad Company - Shooting Star.wav
     Pre-gap length  0:00:00.11
     Peak level 97.7 %
     Extraction speed 3.1 X
     Track quality 99.9 %
     Test CRC DD113C24
     Copy CRC DD113C24
     Track not present in AccurateRip database
     Copy OK
Track 13
     Filename F:\Rips grandsrt8\13. Twisted Sister - The Price.wav
     Pre-gap length  0:00:00.11
     Peak level 97.7 %
     Extraction speed 3.7 X
     Track quality 100.0 %
     Test CRC 31B849C1
     Copy CRC 31B849C1
     Track not present in AccurateRip database
     Copy OK
Track 14
     Filename F:\Rips grandsrt8\14. Nazareth -  Love Hurts.wav
     Pre-gap length  0:00:00.11
     Peak level 97.7 %
     Extraction speed 3.8 X
     Track quality 100.0 %
     Test CRC 043F7E1F
     Copy CRC 043F7E1F
     Track not present in AccurateRip database
     Copy OK
Track 15
     Filename F:\Rips grandsrt8\15. The Cars - Drive.wav
     Pre-gap length  0:00:00.16
     Peak level 94.1 %
     Extraction speed 3.9 X
     Track quality 100.0 %
     Test CRC FCA23CCC
     Copy CRC FCA23CCC
     Track not present in AccurateRip database
     Copy OK
Track 16
     Filename F:\Rips grandsrt8\16. Bonnie Tyler - Here Am I.wav
     Pre-gap length  0:00:00.09
     Peak level 93.8 %
     Extraction speed 4.0 X
     Track quality 100.0 %
     Test CRC 67C9EDD4
     Copy CRC 67C9EDD4
     Track not present in AccurateRip database
     Copy OK
Track 17
     Filename F:\Rips grandsrt8\17. Rick Astley - Cry For Help.wav
     Pre-gap length  0:00:00.14
     Peak level 97.7 %
     Extraction speed 4.2 X
     Track quality 100.0 %
     Test CRC CF168C08
     Copy CRC CF168C08
     Track not present in AccurateRip database
     Copy OK
Track 18
     Filename F:\Rips grandsrt8\18. Mint Julips - Only Love Can Break Your Heart.wav
     Pre-gap length  0:00:00.05
     Peak level 97.7 %
     Extraction speed 4.0 X
     Track quality 100.0 %
     Test CRC BD74383E
     Copy CRC BD74383E
     Track not present in AccurateRip database
     Copy OK
None of the tracks are present in the AccurateRip database
No errors occurred
End of status report
---- CUETools DB Plugin V2.1.6
[CTDB TOCID: gI_w62TEm6Nc0RlKiUE2BMvXB5o-] found
Submit result: gI_w62TEm6Nc0RlKiUE2BMvXB5o- has been confirmed
Track | CTDB Status
  1   | (3/3) Accurately ripped
  2   | (3/3) Accurately ripped
  3   | (3/3) Accurately ripped
  4   | (3/3) Accurately ripped
  5   | (3/3) Accurately ripped
  6   | (3/3) Accurately ripped
  7   | (3/3) Accurately ripped
  8   | (3/3) Accurately ripped
  9   | (3/3) Accurately ripped
 10   | (3/3) Accurately ripped
 11   | (3/3) Accurately ripped
 12   | (3/3) Accurately ripped
 13   | (3/3) Accurately ripped
 14   | (3/3) Accurately ripped
 15   | (3/3) Accurately ripped
 16   | (3/3) Accurately ripped
 17   | (3/3) Accurately ripped
 18   | (3/3) Accurately ripped
==== Log checksum 2260B657D5EE3B759B4A5805C4471D0BB88AA9487EC923D0823CA7F32CAB38C3 ====
01. Patti Austin & Bruce Swedien - Baby Come To Me (3:34)
02. Angry Anderson - Suddenly (4:08)
03. Paolo Nutini - Last Request (3:40)
04. Cheap Trick - The Flame (5:35)
05. Alison Moyet - All Cried Out (3:39)
06. Shakespear's Sister - Stay (3:46)
07. Anastacia - Black Hole Sun (4:53)
08. Nazareth - Piece Of My Heart (4:20)
09. Anita Baker - Sweet Love (4:22)
10. Rose Royce - Love Don't Live Here Anymore (3:52)
11. Princess - Say I'm Your Number One (3:37)
12. You Me At Six - Lived A Lie (3:24)
13. Sinead O'Connor & Shane MacGowan - Haunted (4:08)
14. Dan McCafferty - Out Of Time (3:46)
15. Engineers - Come In Out Of The Rain (3:40)
16. Birdy - Skinny Love (3:20)
17. Rae Morris - Don't Go (3:58)
18. Judie Tzuke - Stay With Me Till Dawn (3:52)
Exact Audio Copy V1.1 from 23. June 2015
EAC extraction logfile from 17. April 2018, 21:46
Various Artists / Simply Power Ballads CD4
Used drive  : ASUS    DRW-24D5MT   Adapter: 1  ID: 0
Read mode               : Secure
Utilize accurate stream : Yes
Defeat audio cache      : Yes
Make use of C2 pointers : No
Read offset correction                      : 6
Overread into Lead-In and Lead-Out          : No
Fill up missing offset samples with silence : Yes
Delete leading and trailing silent blocks   : No
Null samples used in CRC calculations       : Yes
Used interface                              : Native Win32 interface for Win NT & 2000
Gap handling                                : Appended to previous track
Used output format              : User Defined Encoder
Selected bitrate                : 768 kBit/s
Quality                         : High
Add ID3 tag                     : No
Command line compressor         : F:\Программы\Exact Audio Copy\FLAC\FLAC.EXE
Additional command line options : -6 -V -T "ARTIST=%artist%" -T "TITLE=%title%" -T "ALBUM=%albumtitle%" -T "DATE=%year%" -T "TRACKNUMBER=%tracknr%" -T "GENRE=%genre%" -T "COMMENT=Ripped by grandsrt8" -T "BAND=%albuminterpret%" -T "ALBUMARTIST=%albuminterpret%" -T "COMPOSER=%composer%" %haslyrics%--tag-from-file=LYRICS="%lyricsfile%"%haslyrics% -T "DISCNUMBER=%cdnumber%" -T "TOTALDISCS=%totalcds%" -T "TOTALTRACKS=%numtracks%" %hascover%--picture="%coverfile%"%hascover% %source% -o %dest%
TOC of the extracted CD
     Track |   Start  |  Length  | Start sector | End sector
    ---------------------------------------------------------
        1  |  0:00.00 |  3:34.28 |         0    |    16077
        2  |  3:34.28 |  4:07.39 |     16078    |    34641
        3  |  7:41.67 |  3:40.20 |     34642    |    51161
        4  | 11:22.12 |  5:35.02 |     51162    |    76288
        5  | 16:57.14 |  3:39.29 |     76289    |    92742
        6  | 20:36.43 |  3:45.60 |     92743    |   109677
        7  | 24:22.28 |  4:52.73 |    109678    |   131650
        8  | 29:15.26 |  4:19.64 |    131651    |   151139
        9  | 33:35.15 |  4:22.36 |    151140    |   170825
       10  | 37:57.51 |  3:52.25 |    170826    |   188250
       11  | 41:50.01 |  3:37.24 |    188251    |   204549
       12  | 45:27.25 |  3:23.48 |    204550    |   219822
       13  | 48:50.73 |  4:08.26 |    219823    |   238448
       14  | 52:59.24 |  3:46.14 |    238449    |   255412
       15  | 56:45.38 |  3:40.04 |    255413    |   271916
       16  | 60:25.42 |  3:20.25 |    271917    |   286941
       17  | 63:45.67 |  3:58.10 |    286942    |   304801
       18  | 67:44.02 |  3:51.43 |    304802    |   322169
Track  1
     Filename F:\Rips grandsrt8\01. Patti Austin & Bruce Swedien - Baby Come To Me.wav
     Pre-gap length  0:00:02.00
     Peak level 97.7 %
     Extraction speed 2.0 X
     Track quality 100.0 %
     Test CRC 5D75A3FD
     Copy CRC 5D75A3FD
     Track not present in AccurateRip database
     Copy OK
Track  2
     Filename F:\Rips grandsrt8\02. Angry Anderson - Suddenly.wav
     Pre-gap length  0:00:00.43
     Peak level 97.7 %
     Extraction speed 2.2 X
     Track quality 100.0 %
     Test CRC D0DC68FB
     Copy CRC D0DC68FB
     Track not present in AccurateRip database
     Copy OK
Track  3
     Filename F:\Rips grandsrt8\03. Paolo Nutini - Last Request.wav
     Pre-gap length  0:00:01.05
     Peak level 78.5 %
     Extraction speed 2.3 X
     Track quality 100.0 %
     Test CRC ABF18348
     Copy CRC ABF18348
     Track not present in AccurateRip database
     Copy OK
Track  4
     Filename F:\Rips grandsrt8\04. Cheap Trick - The Flame.wav
     Pre-gap length  0:00:01.21
     Peak level 97.7 %
     Extraction speed 2.7 X
     Track quality 100.0 %
     Test CRC 59C4BCD2
     Copy CRC 59C4BCD2
     Track not present in AccurateRip database
     Copy OK
Track  5
     Filename F:\Rips grandsrt8\05. Alison Moyet - All Cried Out.wav
     Pre-gap length  0:00:01.11
     Peak level 99.1 %
     Extraction speed 2.7 X
     Track quality 100.0 %
     Test CRC FAF41C08
     Copy CRC FAF41C08
     Track not present in AccurateRip database
     Copy OK
Track  6
     Filename F:\Rips grandsrt8\06. Shakespear's Sister - Stay.wav
     Pre-gap length  0:00:00.44
     Peak level 97.7 %
     Extraction speed 2.9 X
     Track quality 100.0 %
     Test CRC E750A4B7
     Copy CRC E750A4B7
     Track not present in AccurateRip database
     Copy OK
Track  7
     Filename F:\Rips grandsrt8\07. Anastacia - Black Hole Sun.wav
     Pre-gap length  0:00:01.08
     Peak level 79.4 %
     Extraction speed 3.1 X
     Track quality 100.0 %
     Test CRC 5FF2C794
     Copy CRC 5FF2C794
     Track not present in AccurateRip database
     Copy OK
Track  8
     Filename F:\Rips grandsrt8\08. Nazareth - Piece Of My Heart.wav
     Pre-gap length  0:00:00.57
     Peak level 97.7 %
     Extraction speed 3.2 X
     Track quality 100.0 %
     Test CRC 76149BC1
     Copy CRC 76149BC1
     Track not present in AccurateRip database
     Copy OK
Track  9
     Filename F:\Rips grandsrt8\09. Anita Baker - Sweet Love.wav
     Pre-gap length  0:00:01.08
     Peak level 99.9 %
     Extraction speed 3.3 X
     Track quality 100.0 %
     Test CRC 4DF2BE11
     Copy CRC 4DF2BE11
     Track not present in AccurateRip database
     Copy OK
Track 10
     Filename F:\Rips grandsrt8\10. Rose Royce - Love Don't Live Here Anymore.wav
     Pre-gap length  0:00:00.34
     Peak level 97.7 %
     Extraction speed 3.4 X
     Track quality 100.0 %
     Test CRC 06CDF406
     Copy CRC 06CDF406
     Track not present in AccurateRip database
     Copy OK
Track 11
     Filename F:\Rips grandsrt8\11. Princess - Say I'm Your Number One.wav
     Pre-gap length  0:00:00.25
     Peak level 97.7 %
     Extraction speed 3.5 X
     Track quality 100.0 %
     Test CRC 9184FAE0
     Copy CRC 9184FAE0
     Track not present in AccurateRip database
     Copy OK
Track 12
     Filename F:\Rips grandsrt8\12. You Me At Six - Lived A Lie.wav
     Pre-gap length  0:00:00.33
     Peak level 84.1 %
     Extraction speed 3.5 X
     Track quality 100.0 %
     Test CRC 5B65336A
     Copy CRC 5B65336A
     Track not present in AccurateRip database
     Copy OK
Track 13
     Filename F:\Rips grandsrt8\13. Sinead O'Connor & Shane MacGowan - Haunted.wav
     Pre-gap length  0:00:01.20
     Peak level 92.2 %
     Extraction speed 2.8 X
     Track quality 99.9 %
     Test CRC 9D535E9C
     Copy CRC 9D535E9C
     Track not present in AccurateRip database
     Copy OK
Track 14
     Filename F:\Rips grandsrt8\14. Dan McCafferty - Out Of Time.wav
     Pre-gap length  0:00:00.37
     Peak level 97.7 %
     Extraction speed 3.8 X
     Track quality 100.0 %
     Test CRC 95085FDD
     Copy CRC 95085FDD
     Track not present in AccurateRip database
     Copy OK
Track 15
     Filename F:\Rips grandsrt8\15. Engineers - Come In Out Of The Rain.wav
     Pre-gap length  0:00:00.62
     Peak level 89.6 %
     Extraction speed 3.8 X
     Track quality 100.0 %
     Test CRC FE27F07E
     Copy CRC FE27F07E
     Track not present in AccurateRip database
     Copy OK
Track 16
     Filename F:\Rips grandsrt8\16. Birdy - Skinny Love.wav
     Pre-gap length  0:00:01.08
     Peak level 84.2 %
     Extraction speed 3.9 X
     Track quality 100.0 %
     Test CRC 2F660223
     Copy CRC 2F660223
     Track not present in AccurateRip database
     Copy OK
Track 17
     Filename F:\Rips grandsrt8\17. Rae Morris - Don't Go.wav
     Pre-gap length  0:00:00.57
     Peak level 98.8 %
     Extraction speed 4.1 X
     Track quality 100.0 %
     Test CRC 2126CAE8
     Copy CRC 2126CAE8
     Track not present in AccurateRip database
     Copy OK
Track 18
     Filename F:\Rips grandsrt8\18. Judie Tzuke - Stay With Me Till Dawn.wav
     Pre-gap length  0:00:01.05
     Peak level 92.2 %
     Extraction speed 4.2 X
     Track quality 100.0 %
     Test CRC 466E4ECE
     Copy CRC 466E4ECE
     Track not present in AccurateRip database
     Copy OK
None of the tracks are present in the AccurateRip database
No errors occurred
End of status report
---- CUETools DB Plugin V2.1.6
[CTDB TOCID: LSgLSZCJ0kzx1.9fQ26O3Q9IpGs-] found
Submit result: LSgLSZCJ0kzx1.9fQ26O3Q9IpGs- has been confirmed
Track | CTDB Status
  1   | (3/3) Accurately ripped
  2   | (3/3) Accurately ripped
  3   | (3/3) Accurately ripped
  4   | (3/3) Accurately ripped
  5   | (3/3) Accurately ripped
  6   | (3/3) Accurately ripped
  7   | (3/3) Accurately ripped
  8   | (3/3) Accurately ripped
  9   | (3/3) Accurately ripped
 10   | (3/3) Accurately ripped
 11   | (3/3) Accurately ripped
 12   | (3/3) Accurately ripped
 13   | (3/3) Accurately ripped
 14   | (3/3) Accurately ripped
 15   | (3/3) Accurately ripped
 16   | (3/3) Accurately ripped
 17   | (3/3) Accurately ripped
 18   | (3/3) Accurately ripped
==== Log checksum 06570CCF0D550CA3663A3CCAB8DBCB44EFCEEE5AF147CAB7F89CB80B7C9B7A49 ====
Вне форума Profile PM
Вверх
Показать сообщения:    
Ответить на тему Вверх
Список форумов ivbox.me » Музыка Lossless » [Ballads, Classic Rock, Blues, Pop] Simply Power Ballads (2016), FLAC (tracks)

Текущее время: 23-Июл 16:30

Часовой пояс: GMT + 3


Вы не можете начинать темы
Вы не можете отвечать на сообщения
Вы не можете редактировать свои сообщения
Вы не можете удалять свои сообщения
Вы не можете голосовать в опросах
Вы не можете прикреплять файлы к сообщениям
Вы не можете скачивать файлы