Loading...
Error
Фрилич! «КАЧАЙ И РАЗДАВАЙ». Скачанное не засчитывается!
Регистрация
Имя:     Пароль:  
Забыли пароль?

Остаться в живых / Серии: 1-6 из 6 [2018 г., Военный, драма]

Список форумов ivbox.me » Сериалы отечественные » Остаться в живых / Серии: 1-6 из 6 [2018 г., Военный, драма]
Ответить на тему Вниз
Статистика раздачи
Нет
 
     
Сделать раздачу рекомендованной:  Подтвердите 
 
Автор Сообщение

mihis

Сид-бонус: 4810048

 10 МБ/с   10 МБ/с

Стаж: 5 лет 1 месяц

Сообщений: 565

Откуда: Иваново

Награды: Нет

Рейтинг: 18546,37
Скачано:  78,9 ГБ
Отдано:  726,439 ТБ
на своих 640,347 ТБ
бонус:  62,294 ТБ
Доступно 4,652 ПБ

post 09-Май-2018 15:17 (2 месяца 14 дней назад)

Quote

Остаться в живых
6 Серий


Год выпуска: 2018
Страна: Россия, Производство ООО "Стар Медиа Дистрибьюшн", ВГТРК
Жанр: Военный, драма
Продолжительность: 6 х ~00:48:00
Перевод: Оригинал
Субтитры: нет

Режиссер: Андрей Малюков

В ролях: Егор Корешков, Михаил Пореченков, Александр Горбатов (II), Вера Панфилова, Дирк Мартенс, Олег Мазуров, Юрий Маслак, Евгения Дмитриева, Борис Каморзин, Денис Константинов, Сослан Фидаров, Юрий Уткин, Дмитрий Арбенин, Илья Сологуб, Юрий Титов, Константин Адаев

Описание: Осень 1941 года. Немецкие войска продвигаются к Москве. Старшина Петр Стрельченко вместе с военным инженером Борисом Жихаревым во время боя с немцами собираются взорвать стратегически важную для врага плотину. Но попытка срывается. Спасая Петру жизнь, Борис оказывается в плену.
Стрельченко добирается до своих и вскоре знакомится с женой Бориса — Верой. Он влюбляется в бойкую комсомолку с первого взгляда. Но до Веры доходят известия, что Бориса теперь считают изменником Родины. Он якобы добровольно сдался в плен и теперь работает на немцев. Девушка не верит в предательство мужа и в одиночку перебирается в немецкий тыл. Через оккупированные земли, голод, боль и смерть она отправляется на поиски Бориса.

Качество: SATRip
Формат: AVI
Видео кодек: XviD
Аудио кодек: AC3
Видео: MPEG4, XviD, 720x400 (16:9), 25.000 fps, 1 820 Kbps (0.253 bit/pixel)
Аудио: AC3, 48.0 KHz, 2 ch, 192 Kbps, CBR
Общее
Полное имя : E:\Video\Остаться в живых.2018.SATRip.by.Nicodem.Files-x\01.Остаться в живых.2018.SATRip.by.Nicodem.Files-x.avi
Формат : AVI
Формат/Информация : Audio Video Interleave
Размер файла : 698 Мбайт
Продолжительность : 48 м. 16 с.
Общий поток : 2022 Кбит/сек
Программа кодирования : VirtualDubMod 1.5.10.3 | www.virtualdub-fr.org || (build 2550/release)
Библиотека кодирования : VirtualDubMod build 2550/release

Видео
Идентификатор : 0
Формат : MPEG-4 Visual
Профиль формата : Advanced Simple@L5
Настройки формата : BVOP1 / QPel / Custom Matrix
Параметр BVOP формата : 1
Параметр QPel формата : Да
Параметр GMC формата : Без точки перехода
Параметр матрицы формата : Выборочная
Идентификатор кодека : XVID
Идентификатор кодека/Подсказка : XviD
Продолжительность : 48 м. 16 с.
Битрейт : 1820 Кбит/сек
Ширина : 720 пикселей
Высота : 400 пикселей
Соотношение сторон : 16:9
Частота кадров : 25,000 кадров/сек
Цветовое пространство : YUV
Субдискретизация насыщенности : 4:2:0
Битовая глубина : 8 бит
Тип развёртки : Прогрессивная
Метод сжатия : С потерями
Бит/(Пиксели*Кадры) : 0.253
Размер потока : 628 Мбайт (90%)
Библиотека кодирования : XviD 73

Аудио
Идентификатор : 1
Формат : AC-3
Формат/Информация : Audio Coding 3
Идентификатор кодека : 2000
Продолжительность : 48 м. 16 с.
Вид битрейта : Постоянный
Битрейт : 192 Кбит/сек
Каналы : 2 канала
Расположение каналов : Front: L R
Частота : 48,0 КГц
Частота кадров : 31,250 кадров/сек (1536 SPF)
Битовая глубина : 16 бит
Метод сжатия : С потерями
Размер потока : 66,3 Мбайт (9%)
Выравнивание : Разделение по промежуткам
Продолжительность промежутка : 40 мс. (1,00 видеокадр)
Время предзагрузки промежутка : 500 мс.
ServiceKind/String : Complete Main
Вне форума Profile PM
Вверх
Показать сообщения:    
Ответить на тему Вверх
Список форумов ivbox.me » Сериалы отечественные » Остаться в живых / Серии: 1-6 из 6 [2018 г., Военный, драма]

Текущее время: 23-Июл 16:29

Часовой пояс: GMT + 3


Вы не можете начинать темы
Вы не можете отвечать на сообщения
Вы не можете редактировать свои сообщения
Вы не можете удалять свои сообщения
Вы не можете голосовать в опросах
Вы не можете прикреплять файлы к сообщениям
Вы не можете скачивать файлы