Loading...
Error
Фрилич! «КАЧАЙ И РАЗДАВАЙ». Скачанное не засчитывается!
Регистрация
Имя:     Пароль:  
Забыли пароль?

Тренер (Данила Козловский) [2018 Драма, спорт WEB-DL 1080p] | iTunes

Список форумов ivbox.me » HD видео » Отечественные фильмы (HD качество) » Тренер (Данила Козловский) [2018 Драма, спорт WEB-DL 1080p] | iTunes
Ответить на тему Вниз
Статистика раздачи
Нет
 
     
Сделать раздачу рекомендованной:  Подтвердите 
 
Автор Сообщение

mihis

Сид-бонус: 4796060

 10 МБ/с   10 МБ/с

Стаж: 5 лет 5 месяцев

Сообщений: 581

Откуда: Иваново

Награды: Нет

Рейтинг: 18546,37
Скачано:  78,9 ГБ
Отдано:  726,439 ТБ
на своих 640,347 ТБ
бонус:  62,294 ТБ
Доступно 4,652 ПБ

post 14-Июн-2018 01:10 (5 месяцев 2 дня назад)

Quote

Тренер


Название: Тренер
Год выхода: 2018
Жанр: Драма, спорт
Режиссер: Данила Козловский

В ролях: Данила Козловский, Владимир Ильин, Андрей Смоляков, Ольга Зуева, Ирина Горбачёва, Виктор Вержбицкий, Мария Лобанова, Павел Ворожцов, Игорь Гордин, Александр Ильин

О фильме:
Футболист национальной сборной Юрий Столешников в ответственный момент не забивает пенальти. После досадной ошибки Столешников покидает сборную, завершает карьеру и становится тренером маленькой провинциальной команды. Именно с этим клубом Столешникову предстоит совершить чудо и вновь поверить в себя.

Страна: Россия
Студия: DK Entertainment, Кинослово, Студия Тритэ
Продолжительность: 02:12:22
Перевод: Не требуется (русский) iTunes

Кодек: H.264
Качество: WEB-DL 1080p | iTunes
Видео: AVC/H.264, 1920x804, ~4690 kbps, 25 fps
Звук: Аудио : AC3, 6 ch, 384 Kbps
Субтитры: Отсутствуют
Общее
Уникальный идентификатор : 33063215503011944955586507944710103046 (0x18DFBE61C7922E819A3589D8296FE006)
Полное имя : TRENER.2018.WEB-DL.1080p.mkv
Формат : Matroska
Версия формата : Version 4 / Version 2
Размер файла : 4,69 Гбайт
Продолжительность : 2 ч. 12 м.
Общий поток : 5076 Кбит/сек
Дата кодирования : UTC 2018-06-13 20:59:26
Программа кодирования : mkvmerge v23.0.0 ('The Bride Said No') 64-bit
Библиотека кодирования : libebml v1.3.6 + libmatroska v1.4.9

Видео
Идентификатор : 1
Формат : AVC
Формат/Информация : Advanced Video Codec
Профиль формата : High@L4
Настройки формата : CABAC / 5 Ref Frames
Параметр CABAC формата : Да
Параметр RefFrames формата : 5 кадров
Идентификатор кодека : V_MPEG4/ISO/AVC
Продолжительность : 2 ч. 12 м.
Битрейт : 4690 Кбит/сек
Ширина : 1920 пикселей
Высота : 804 пикселя
Соотношение сторон : 2,40:1
Режим частоты кадров : Постоянный
Частота кадров : 25,000 кадров/сек
Цветовое пространство : YUV
Субдискретизация насыщенности : 4:2:0
Битовая глубина : 8 бит
Тип развёртки : Прогрессивная
Бит/(Пиксели*Кадры) : 0.122
Размер потока : 4,34 Гбайт (92%)
Язык : Russian
Default : Да
Forced : Нет
Цветовой диапазон : Limited
Основные цвета : BT.709
Характеристики трансфера : BT.709
Коэффициенты матрицы : BT.709

Аудио
Идентификатор : 2
Формат : AC-3
Формат/Информация : Audio Coding 3
Идентификатор кодека : A_AC3
Продолжительность : 2 ч. 12 м.
Вид битрейта : Постоянный
Битрейт : 384 Кбит/сек
Каналы : 6 каналов
Расположение каналов : Front: L C R, Side: L R, LFE
Частота : 48,0 КГц
Частота кадров : 31,250 кадров/сек (1536 SPF)
Битовая глубина : 16 бит
Метод сжатия : С потерями
Размер потока : 364 Мбайт (8%)
Язык : Russian
ServiceKind : Complete Main
Default : Да
Forced : Нет
Вне форума Profile PM
Вверх
Показать сообщения:    
Ответить на тему Вверх
Список форумов ivbox.me » HD видео » Отечественные фильмы (HD качество) » Тренер (Данила Козловский) [2018 Драма, спорт WEB-DL 1080p] | iTunes

Текущее время: 16-Ноя 08:33

Часовой пояс: GMT + 3


Вы не можете начинать темы
Вы не можете отвечать на сообщения
Вы не можете редактировать свои сообщения
Вы не можете удалять свои сообщения
Вы не можете голосовать в опросах
Вы не можете прикреплять файлы к сообщениям
Вы не можете скачивать файлы