Loading...
Error
Фрилич! «КАЧАЙ И РАЗДАВАЙ». Скачанное не засчитывается!
Регистрация
Имя:     Пароль:  
Забыли пароль?

Первые [2017 драма, приключения, история WEB-DLRip] | Line

Список форумов ivbox.me » Отечественные кинофильмы » Новинки 2017-18 г. » Первые [2017 драма, приключения, история WEB-DLRip] | Line
Ответить на тему Вниз
Статистика раздачи
Нет
 
     
Сделать раздачу рекомендованной:  Подтвердите 
 
Автор Сообщение

mihis

Сид-бонус: 4810048

 10 МБ/с   10 МБ/с

Стаж: 5 лет 1 месяц

Сообщений: 565

Откуда: Иваново

Награды: Нет

Рейтинг: 18546,37
Скачано:  78,9 ГБ
Отдано:  726,439 ТБ
на своих 640,347 ТБ
бонус:  62,294 ТБ
Доступно 4,652 ПБ

post 10-Июл-2018 14:15 (10 дней назад)

Quote

Первые
Название: Первые
Год выпуска: 2017
Страна: Россия
Жанр: драма, приключения, история
Перевод: Не требуется [Русский] (Line)

Продолжительность: 01:36:15
Режиссер: Дмитрий Суворов
В ролях: Наиль Абдрахманов (Василий Прончищев), Алина Ланина (Татьяна Прончищева), Евгений Ткачук (Семён Челюскин), Валерий Баринов (Витус Беринг), Данила Якушев (боцман), Сергей Рост (Фарварсон), Сергей Терещенко, Александр Дьяченко (Пётр I), Егор Тимцуник
Описание:
Лента расскажет о подвиге и любви супругов Прончищевых - полярных исследователей Арктики в составе Ленско-Енисейского отряда Великой Северной экспедиции.

Качество: WEB-DLRip
Формат: AVI
Видео: XviD, 720x320 (2.25:1), 1803 kbps, 24 fps, 0,326 bpp
Аудио: AC3 / 2.0 / 48 kHz / 224 kbps /
Сэмпл

General
Complete name : F:Pervye.2017.WEB-DLRip.Line.R.G.Resident.avi
Format : AVI
Format/Info : Audio Video Interleave
File size : 1.37 GiB
Duration : 1 h 36 min
Overall bit rate : 2 037 kb/s
Writing application : VirtualDubModRus 1.5.10.2 (build 2542/release)
Writing library : VirtualDubMod build 2542/release

Video
ID : 0
Format : MPEG-4 Visual
Format profile : Advanced Simple@L5
Format settings, BVOP : 1
Format settings, QPel : No
Format settings, GMC : No warppoints
Format settings, Matrix : Custom
Codec ID : XVID
Codec ID/Hint : XviD
Duration : 1 h 36 min
Bit rate : 1 804 kb/s
Width : 720 pixels
Height : 320 pixels
Display aspect ratio : 2.25:1
Frame rate : 24.000 FPS
Color space : YUV
Chroma subsampling : 4:2:0
Bit depth : 8 bits
Scan type : Progressive
Compression mode : Lossy
Bits/(Pixel*Frame) : 0.326
Stream size : 1.21 GiB (89%)
Writing library : XviD 73

Audio
ID : 1
Format : AC-3
Format/Info : Audio Coding 3
Mode extension : CM (complete main)
Format settings, Endianness : Big
Codec ID : 2000
Duration : 1 h 36 min
Bit rate mode : Constant
Bit rate : 224 kb/s
Channel(s) : 2 channels
Channel positions : Front: L R
Sampling rate : 48.0 kHz
Frame rate : 31.250 FPS (1536 spf)
Compression mode : Lossy
Stream size : 154 MiB (11%)
Alignment : Split accross interleaves
Interleave, duration : 42 ms (1.00 video frame)
Interleave, preload duration : 500 ms
Вне форума Profile PM
Вверх
Показать сообщения:    
Ответить на тему Вверх
Список форумов ivbox.me » Отечественные кинофильмы » Новинки 2017-18 г. » Первые [2017 драма, приключения, история WEB-DLRip] | Line

Текущее время: 21-Июл 14:08

Часовой пояс: GMT + 3


Вы не можете начинать темы
Вы не можете отвечать на сообщения
Вы не можете редактировать свои сообщения
Вы не можете удалять свои сообщения
Вы не можете голосовать в опросах
Вы не можете прикреплять файлы к сообщениям
Вы не можете скачивать файлы