Loading...
Error
Фрилич! «КАЧАЙ И РАЗДАВАЙ». Скачанное не засчитывается!
Регистрация
Имя:     Пароль:  
Забыли пароль?

Лето [2018 Биография, музыка, драма WEB-DLRip] | iTunes

Список форумов ivbox.me » Отечественные кинофильмы » Новинки 2017-18 г. » Лето [2018 Биография, музыка, драма WEB-DLRip] | iTunes
Ответить на тему Вниз
Статистика раздачи
Нет
 
     
Сделать раздачу рекомендованной:  Подтвердите 
 
Автор Сообщение

mihis

Сид-бонус: 4801653

 10 МБ/с   10 МБ/с

Стаж: 5 лет 2 месяца

Сообщений: 575

Откуда: Иваново

Награды: Нет

Рейтинг: 18546,37
Скачано:  78,9 ГБ
Отдано:  726,439 ТБ
на своих 640,347 ТБ
бонус:  62,294 ТБ
Доступно 4,652 ПБ

post 28-Июл-2018 21:05 (24 дня назад)

Quote

Лето


Название: Лето
Год выхода: 2018
Жанр: Биография, музыка, драма

Режиссер: Кирилл Серебренников

В ролях: Рома Зверь, Ирина Старшенбаум, Тео Ю, Филипп Авдеев, Евгений Серзин, Александр Горчилин, Василий Михайлов, Александр Кузнецов, Никита Ефремов, Герман Осипов и др.

О фильме: Фильм рассказывает о самом начале творческого пути Виктора Цоя и группы «Кино», о его взаимоотношениях с Майком Науменко, его женой Натальей и многими, кто был в авангарде рок-движения Ленинграда 1981 года. Это история о Ленинграде 80-х, о любви, поисках и больших надеждах — о настроении, которое останется с нами навсегда.

Страна: Россия
Перевод: Не требуется
Продолжительность: 02:08:34

Формат: AVI
Качество: WEB-DLRip
Видео: Xvid, 720x272, ~1421 kbps, 23,976 fps
Звук: русский, AC3, 2 ch, 48 kHz, 192 kbps | iTunes
Субтитры: нет
General
Полное имя : F:TorrentLeto.avi
Формат : AVI
Формат/Информация : Audio Video Interleave
Размер файла : 1.46 GiB
Продолжительность : 2 h 8 min
Общий поток : 1 622 kb/s
Библиотека кодирования : VirtualDub build 35491/release

Video
Идентификатор : 0
Формат : MPEG-4 Visual
Профиль формата : Advanced Simple@L5
Настройки формата : BVOP2 / Custom Matrix
Параметр BVOP формата : 2
Параметр QPel формата : No
Параметр GMC формата : No warppoints
Параметр матрицы формата : Custom
Идентификатор кодека : XVID
Идентификатор кодека/Подсказка : XviD
Продолжительность : 2 h 8 min
Битрейт : 1 421 kb/s
Ширина : 720 pixels
Высота : 272 pixels
Соотношение сторон : 2.647
Частота кадров : 23.976 (24000/1001) FPS
Цветовое пространство : YUV
Субдискретизация насыщенности : 4:2:0
Битовая глубина : 8 bits
Тип развёртки : Progressive
Метод сжатия : Lossy
Бит/(Пиксели*Кадры) : 0.303
Размер потока : 1.28 GiB (88%)
Библиотека кодирования : XviD 67

Audio
Идентификатор : 1
Формат : AC-3
Формат/Информация : Audio Coding 3
Идентификатор кодека : 2000
Продолжительность : 2 h 8 min
Вид битрейта : Constant
Битрейт : 192 kb/s
Каналы : 2 channels
Расположение каналов : Front: L R
Частота : 48.0 kHz
Частота кадров : 31.250 FPS (1536 SPF)
Битовая глубина : 16 bits
Метод сжатия : Lossy
Размер потока : 177 MiB (12%)
Выравнивание : Aligned on interleaves
Продолжительность промежутка : 42 ms (1.00 video frame)
Время предзагрузки промежутка : 512 ms
Вне форума Profile PM
Вверх
Показать сообщения:    
Ответить на тему Вверх
Список форумов ivbox.me » Отечественные кинофильмы » Новинки 2017-18 г. » Лето [2018 Биография, музыка, драма WEB-DLRip] | iTunes

Текущее время: 21-Авг 21:18

Часовой пояс: GMT + 3


Вы не можете начинать темы
Вы не можете отвечать на сообщения
Вы не можете редактировать свои сообщения
Вы не можете удалять свои сообщения
Вы не можете голосовать в опросах
Вы не можете прикреплять файлы к сообщениям
Вы не можете скачивать файлы