Loading...
Error
Фрилич! «КАЧАЙ И РАЗДАВАЙ». Скачанное не засчитывается!
Регистрация
Имя:     Пароль:  
Забыли пароль?

Решение о ликвидации [2018 Военный, боевик, драма BDRip] | Лицензия

Список форумов ivbox.me » Отечественные кинофильмы » Новинки 2017-18 г. » Решение о ликвидации [2018 Военный, боевик, драма BDRip] | Лицензия
Ответить на тему Вниз
Статистика раздачи
Нет
 
     
Сделать раздачу рекомендованной:  Подтвердите 
 
Автор Сообщение

mihis

Сид-бонус: 4796059

 10 МБ/с   10 МБ/с

Стаж: 5 лет 3 месяца

Сообщений: 581

Откуда: Иваново

Награды: Нет

Рейтинг: 18546,37
Скачано:  78,9 ГБ
Отдано:  726,439 ТБ
на своих 640,347 ТБ
бонус:  62,294 ТБ
Доступно 4,652 ПБ

post 25-Авг-2018 16:50 (27 дней назад)

Quote

Решение о ликвидации


Название: Решение о ликвидации
Год выхода: 2018
Жанр: Военный, боевик, драма
Страна: Россия
Перевод: Не требуется
Продолжительность: 01:36:11

Режиссер: Александр Аравин

В ролях: Игорь Петренко, Алексей Вертков, Аюб Цингиев, Алексей Шевченков, Дмитрий Парастаев, Иван Шахназаров, Дагун Омаев, Сослан Фидаров, Кирилл Краснов, Шамиль Алханов и др.

О фильме: Особое задание спецгруппы ФСБ — ликвидация одержимого террориста Шамиля Базгаева. Охота продолжается уже долго, но жестокий лидер боевиков раз за разом ускользает. Однако, когда Базгаеву удается заполучить мощное оружие для осуществления своего самого страшного теракта, у оперативников больше нет права на ошибку. Для этих спецов преодоление себя, смертельный риск и подвиг — не что-то сверхъестественное, а каждодневный тяжелый труд. Но, кажется, даже для них эта операция — за пределами возможностей…

Формат: AVI
Качество: BDRip
Видео: Xvid, 720x304, ~1706 kbps, 23,976 fps
Звук: русский, AC3, 5.1 ch, 48 kHz, 448 kbps | Лицензия
Субтитры: русские (вшитые) на чеченскую речь
General
Полное имя : F:TorrentReshenieOlikvidaciiBDRip.avi
Формат : AVI
Формат/Информация : Audio Video Interleave
Размер файла : 1.45 GiB
Продолжительность : 1 h 36 min
Общий поток : 2 163 kb/s
Библиотека кодирования : VirtualDub build 35491/release

Video
Идентификатор : 0
Формат : MPEG-4 Visual
Профиль формата : Advanced Simple@L5
Настройки формата : BVOP2 / Custom Matrix
Параметр BVOP формата : 2
Параметр QPel формата : No
Параметр GMC формата : No warppoints
Параметр матрицы формата : Custom
Идентификатор кодека : XVID
Идентификатор кодека/Подсказка : XviD
Продолжительность : 1 h 36 min
Битрейт : 1 706 kb/s
Ширина : 720 pixels
Высота : 304 pixels
Соотношение сторон : 2.35:1
Частота кадров : 23.976 (24000/1001) FPS
Цветовое пространство : YUV
Субдискретизация насыщенности : 4:2:0
Битовая глубина : 8 bits
Тип развёртки : Progressive
Метод сжатия : Lossy
Бит/(Пиксели*Кадры) : 0.325
Размер потока : 1.15 GiB (79%)
Библиотека кодирования : XviD 67

Audio
Идентификатор : 1
Формат : AC-3
Формат/Информация : Audio Coding 3
Идентификатор кодека : 2000
Продолжительность : 1 h 36 min
Вид битрейта : Constant
Битрейт : 448 kb/s
Каналы : 6 channels
Расположение каналов : Front: L C R, Side: L R, LFE
Частота : 48.0 kHz
Частота кадров : 31.250 FPS (1536 SPF)
Битовая глубина : 16 bits
Метод сжатия : Lossy
Размер потока : 308 MiB (21%)
Выравнивание : Aligned on interleaves
Продолжительность промежутка : 42 ms (1.00 video frame)
Время предзагрузки промежутка : 512 ms
Вне форума Profile PM
Вверх
Показать сообщения:    
Ответить на тему Вверх
Список форумов ivbox.me » Отечественные кинофильмы » Новинки 2017-18 г. » Решение о ликвидации [2018 Военный, боевик, драма BDRip] | Лицензия

Текущее время: 22-Сен 14:15

Часовой пояс: GMT + 3


Вы не можете начинать темы
Вы не можете отвечать на сообщения
Вы не можете редактировать свои сообщения
Вы не можете удалять свои сообщения
Вы не можете голосовать в опросах
Вы не можете прикреплять файлы к сообщениям
Вы не можете скачивать файлы