Loading...
Error
Фрилич! «КАЧАЙ И РАЗДАВАЙ». Скачанное не засчитывается!
Регистрация
Имя:     Пароль:  
Забыли пароль?

[Synthpop] Роботы - Robotmetrobot (2003), FLAC (image + .cue)

Список форумов ivbox.me » Музыка Lossless » [Synthpop] Роботы - Robotmetrobot (2003), FLAC (image + .cue)
Ответить на тему Вниз
Статистика раздачи
Нет
 
     
Сделать раздачу рекомендованной:  Подтвердите 
 
Автор Сообщение

Man

Сид-бонус: 75380
Сид-бонус: 75380

Стаж: 12 лет

Сообщений: 39

Откуда: Родники

Награды: Нет

Рейтинг: 4,63
Скачано:  1,266 ТБ
Отдано:  4,012 ТБ
на своих 1,578 ТБ
бонус:  273,54 ГБ
Доступно 18,258 ТБ

post 09-Фев-2019 11:53 (6 месяцев назад)

Quote

Роботы - Robotmetrobot

Страна: Россия
Жанр: Synthpop
Год выпуска: 2003
Формат: FLAC (image+.cue)
Продолжительность: 00:41:15

Трэклист:
01 - Apartment On The Moon
02 - Humanoid Boys
03 - Disconnected
04 - MTV
05 - Co-cain
06 - Word Problem
07 - Человек машина
08 - Entschuldigung
09 - Метрополитен
10 - Robotmetrobot
11 - Робот-синтезатор
12 - R.O.B.O.T.S.


Доп. информация: + видеотрек «Робот-синтезатор»

Код:

Exact Audio Copy V0.99 prebeta 4 from 23. January 2008

EAC extraction logfile from 14. December 2008, 10:25

Роботы / Robotmetrobot

Used drive  : TSSTcorpDVD-ROM SH-D162C   Adapter: 0  ID: 3

Read mode               : Secure
Utilize accurate stream : Yes
Defeat audio cache      : Yes
Make use of C2 pointers : No

Read offset correction                      : 6
Overread into Lead-In and Lead-Out          : No
Fill up missing offset samples with silence : Yes
Delete leading and trailing silent blocks   : No
Null samples used in CRC calculations       : Yes
Used interface                              : Native Win32 interface for Win NT & 2000

Used output format              : User Defined Encoder
Selected bitrate                : 320 kBit/s
Quality                         : High
Add ID3 tag                     : No
Command line compressor         : C:\Program Files\FLAC\flac.exe
Additional command line options : -8 -V -T "ARTIST=%a" -T "TITLE=%t" -T "ALBUM=%g" -T "DATE=%y" -T "TRACKNUMBER=%n" -T "GENRE=%m" -T "COMMENT=EAC FLAC -8" %s

TOC of the extracted CD

     Track |   Start  |  Length  | Start sector | End sector
    ---------------------------------------------------------
        1  |  0:00.00 |  4:37.64 |         0    |    20838
        2  |  4:37.64 |  3:21.36 |     20839    |    35949
        3  |  7:59.25 |  4:36.37 |     35950    |    56686
        4  | 12:35.62 |  3:01.35 |     56687    |    70296
        5  | 15:37.22 |  2:48.11 |     70297    |    82907
        6  | 18:25.33 |  3:08.34 |     82908    |    97041
        7  | 21:33.67 |  2:40.19 |     97042    |   109060
        8  | 24:14.11 |  3:11.44 |    109061    |   123429
        9  | 27:25.55 |  6:07.11 |    123430    |   150965
       10  | 33:32.66 |  2:19.32 |    150966    |   161422
       11  | 35:52.23 |  2:49.65 |    161423    |   174162
       12  | 38:42.13 |  2:33.48 |    174163    |   185685
       13  | 43:47.61 | 18:36.04 |    197086    |   280789

Range status and errors

Selected range

     Peak level 98.8 %
     Range quality 100.0 %
     Test CRC 3158B492
     Copy CRC 3158B492
     Copy OK

No errors occurred

End of status report
Вне форума Profile PM
Вверх
Показать сообщения:    
Ответить на тему Вверх
Список форумов ivbox.me » Музыка Lossless » [Synthpop] Роботы - Robotmetrobot (2003), FLAC (image + .cue)

Текущее время: 18-Авг 10:13

Часовой пояс: GMT + 3


Вы не можете начинать темы
Вы не можете отвечать на сообщения
Вы не можете редактировать свои сообщения
Вы не можете удалять свои сообщения
Вы не можете голосовать в опросах
Вы не можете прикреплять файлы к сообщениям
Вы не можете скачивать файлы