Loading...
Error
Фрилич! «КАЧАЙ И РАЗДАВАЙ». Скачанное не засчитывается!
Регистрация
Имя:     Пароль:  
Забыли пароль?

[Pop] Dido - Still On My Mind (2019), FLAC (tracks)

Список форумов ivbox.me » Музыка Lossless » [Pop] Dido - Still On My Mind (2019), FLAC (tracks)
Ответить на тему Вниз
Статистика раздачи
Скачали: [ 4 ]
 
     
Сделать раздачу рекомендованной:  Подтвердите 
 
Автор Сообщение

DerMeister

Сид-бонус: 44083
Сид-бонус: 44083

 10 МБ/с   10 МБ/с

Стаж: 5 лет 11 месяцев

Сообщений: 924

Откуда: Иваново

Награды: Нет

Рейтинг: Нет
Скачано:  4,57 ГБ
Отдано:  19,919 ТБ
на своих 13,205 ТБ
бонус:  5,353 ТБ
Доступно 128,252 ТБ

post 09-Мар-2019 13:24 (2 месяца 10 дней назад)

Quote

Dido - Still On My Mind

Страна: United Kingdom (London)
Издатель (лейбл): BMG Rights (UK)
Номер по каталогу: 4050538455793
Жанр: Pop
Год выпуска: 2019
Формат: FLAC (tracks)
Продолжительность: 00:45:27

Трэклист:
01. Hurricanes (5:17)
02. Give You Up (3:22)
03. Hell After This (3:28)
04. You Don't Need a God (3:32)
05. Take You Home (5:06)
06. Some Kind of Love (4:42)
07. Still on My Mind (3:04)
08. Mad Love (2:52)
09. Walking By (4:31)
10. Friends (3:24)
11. Chances (3:32)
12. Have to Stay (2:44)

Код:

Exact Audio Copy V1.3 from 2. September 2016

EAC extraction logfile from 8. March 2019, 13:09

Dido / Still On My Mind

Used drive  : ATAPI   iHAS124   F   Adapter: 1  ID: 0

Read mode               : Secure
Utilize accurate stream : Yes
Defeat audio cache      : Yes
Make use of C2 pointers : No

Read offset correction                      : 6
Overread into Lead-In and Lead-Out          : No
Fill up missing offset samples with silence : Yes
Delete leading and trailing silent blocks   : No
Null samples used in CRC calculations       : Yes
Used interface                              : Native Win32 interface for Win NT & 2000
Gap handling                                : Appended to previous track

Used output format              : User Defined Encoder
Selected bitrate                : 1024 kBit/s
Quality                         : High
Add ID3 tag                     : No
Command line compressor         : C:\Program Files (x86)\FLAC\flac.exe
Additional command line options : -8 -V -T "ARTIST=%artist%" -T "TITLE=%title%" -T "ALBUM=%albumtitle%" -T "DATE=%year%" -T "TRACKNUMBER=%tracknr%" -T "GENRE=%genre%" -T "PERFORMER=%albuminterpret%" -T "COMPOSER=%composer%" %haslyrics%--tag-from-file=LYRICS="%lyricsfile%"%haslyrics% -T "ALBUMARTIST=%albumartist%" -T "DISCNUMBER=%cdnumber%" -T "TOTALDISCS=%totalcds%" -T "TOTALTRACKS=%numtracks%" -T "COMMENT=%comment%" %source% -o %dest%

TOC of the extracted CD

     Track |   Start  |  Length  | Start sector | End sector
    ---------------------------------------------------------
        1  |  0:00.00 |  5:14.29 |         0    |    23578
        2  |  5:14.29 |  3:21.40 |     23579    |    38693
        3  |  8:35.69 |  3:27.54 |     38694    |    54272
        4  | 12:03.48 |  3:31.47 |     54273    |    70144
        5  | 15:35.20 |  5:05.72 |     70145    |    93091
        6  | 20:41.17 |  4:42.17 |     93092    |   114258
        7  | 25:23.34 |  3:04.33 |    114259    |   128091
        8  | 28:27.67 |  2:52.00 |    128092    |   140991
        9  | 31:19.67 |  4:31.02 |    140992    |   161318
       10  | 35:50.69 |  3:23.20 |    161319    |   176563
       11  | 39:14.14 |  3:31.40 |    176564    |   192428
       12  | 42:45.54 |  2:44.06 |    192429    |   204734

Track  1

     Filename G:\Music\Dido - Still On My Mind (2019) [EAC-FLAC] {538455792}\01 - Hurricanes.wav

     Pre-gap length  0:00:02.00

     Peak level 98.9 %
     Extraction speed 4.7 X
     Track quality 99.9 %
     Test CRC 85FB88CB
     Copy CRC 85FB88CB
     Track not present in AccurateRip database
     Copy OK

Track  2

     Filename G:\Music\Dido - Still On My Mind (2019) [EAC-FLAC] {538455792}\02 - Give You Up.wav

     Peak level 88.1 %
     Extraction speed 4.6 X
     Track quality 99.9 %
     Test CRC CFC65FD5
     Copy CRC CFC65FD5
     Track not present in AccurateRip database
     Copy OK

Track  3

     Filename G:\Music\Dido - Still On My Mind (2019) [EAC-FLAC] {538455792}\03 - Hell After This.wav

     Peak level 98.3 %
     Extraction speed 6.2 X
     Track quality 100.0 %
     Test CRC F5EF9B56
     Copy CRC F5EF9B56
     Track not present in AccurateRip database
     Copy OK

Track  4

     Filename G:\Music\Dido - Still On My Mind (2019) [EAC-FLAC] {538455792}\04 - You Don't Need a God.wav

     Peak level 98.8 %
     Extraction speed 6.7 X
     Track quality 100.0 %
     Test CRC 385D6FD0
     Copy CRC 385D6FD0
     Track not present in AccurateRip database
     Copy OK

Track  5

     Filename G:\Music\Dido - Still On My Mind (2019) [EAC-FLAC] {538455792}\05 - Take You Home.wav

     Peak level 100.0 %
     Extraction speed 7.5 X
     Track quality 100.0 %
     Test CRC 9583F659
     Copy CRC 9583F659
     Track not present in AccurateRip database
     Copy OK

Track  6

     Filename G:\Music\Dido - Still On My Mind (2019) [EAC-FLAC] {538455792}\06 - Some Kind of Love.wav

     Peak level 89.1 %
     Extraction speed 7.9 X
     Track quality 100.0 %
     Test CRC CAE8BD20
     Copy CRC CAE8BD20
     Track not present in AccurateRip database
     Copy OK

Track  7

     Filename G:\Music\Dido - Still On My Mind (2019) [EAC-FLAC] {538455792}\07 - Still on My Mind.wav

     Peak level 98.8 %
     Extraction speed 7.9 X
     Track quality 100.0 %
     Test CRC 50E08506
     Copy CRC 50E08506
     Track not present in AccurateRip database
     Copy OK

Track  8

     Filename G:\Music\Dido - Still On My Mind (2019) [EAC-FLAC] {538455792}\08 - Mad Love.wav

     Peak level 98.7 %
     Extraction speed 6.2 X
     Track quality 99.9 %
     Test CRC FFBC928B
     Copy CRC FFBC928B
     Track not present in AccurateRip database
     Copy OK

Track  9

     Filename G:\Music\Dido - Still On My Mind (2019) [EAC-FLAC] {538455792}\09 - Walking By.wav

     Peak level 98.8 %
     Extraction speed 8.9 X
     Track quality 100.0 %
     Test CRC 947C27C7
     Copy CRC 947C27C7
     Track not present in AccurateRip database
     Copy OK

Track 10

     Filename G:\Music\Dido - Still On My Mind (2019) [EAC-FLAC] {538455792}\10 - Friends.wav

     Peak level 97.5 %
     Extraction speed 8.9 X
     Track quality 100.0 %
     Test CRC B811A21C
     Copy CRC B811A21C
     Track not present in AccurateRip database
     Copy OK

Track 11

     Filename G:\Music\Dido - Still On My Mind (2019) [EAC-FLAC] {538455792}\11 - Chances.wav

     Peak level 97.8 %
     Extraction speed 9.2 X
     Track quality 100.0 %
     Test CRC A8457F4E
     Copy CRC A8457F4E
     Track not present in AccurateRip database
     Copy OK

Track 12

     Filename G:\Music\Dido - Still On My Mind (2019) [EAC-FLAC] {538455792}\12 - Have to Stay.wav

     Peak level 98.9 %
     Extraction speed 9.0 X
     Track quality 100.0 %
     Test CRC 84DE6733
     Copy CRC 84DE6733
     Track not present in AccurateRip database
     Copy OK

None of the tracks are present in the AccurateRip database

No errors occurred

End of status report

---- CUETools DB Plugin V2.1.6

[CTDB TOCID: _6MeylmSljW.JTzYjz4iK2WkwcU-] found
Submit result: _6MeylmSljW.JTzYjz4iK2WkwcU- has been confirmed
Track | CTDB Status
  1   | (6/6) Accurately ripped
  2   | (6/6) Accurately ripped
  3   | (6/6) Accurately ripped
  4   | (6/6) Accurately ripped
  5   | (6/6) Accurately ripped
  6   | (6/6) Accurately ripped
  7   | (6/6) Accurately ripped
  8   | (6/6) Accurately ripped
  9   | (6/6) Accurately ripped
 10   | (6/6) Accurately ripped
 11   | (6/6) Accurately ripped
 12   | (6/6) Accurately ripped

==== Log checksum 2B409862A124BB881796F731E4C56F95F68CAF7712C6DB0B8C1EAE77AEAF0E3C ====
Скрыт Profile PM
Вверх
Показать сообщения:    
Ответить на тему Вверх
Список форумов ivbox.me » Музыка Lossless » [Pop] Dido - Still On My Mind (2019), FLAC (tracks)

Текущее время: 19-Май 13:49

Часовой пояс: GMT + 3


Вы не можете начинать темы
Вы не можете отвечать на сообщения
Вы не можете редактировать свои сообщения
Вы не можете удалять свои сообщения
Вы не можете голосовать в опросах
Вы не можете прикреплять файлы к сообщениям
Вы не можете скачивать файлы