Loading...
Error
Фрилич! «КАЧАЙ И РАЗДАВАЙ». Скачанное не засчитывается!
Регистрация
Имя:     Пароль:  
Забыли пароль?

Алита: Боевой ангел / Alita: Battle Angel (Роберт Родригес) [2019 Фантастика, боевик, триллер, мелодрама, приключения WEB-DLRip-AV​C] MVO | СВ Студия

Список форумов ivbox.me » Архив » Временная папка » Алита: Боевой ангел / Alita: Battle Angel (Роберт Родригес) [2019 Фантастика, боевик, триллер, мелодрама, приключения WEB-DLRip-AV​C] MVO | СВ Студия
Ответить на тему Вниз
Статистика раздачи
Скачали: [ 65 ]
 
     
Сделать раздачу рекомендованной:  Подтвердите 
 
Автор Сообщение

PIONER

Сид-бонус: 222694

 10 МБ/с   10 МБ/с

Стаж: 11 лет

Сообщений: 1276

Откуда: Кохма

Награды: Нет

Рейтинг: 205,47
Скачано:  491,16 ГБ
Отдано:  61,269 ТБ
на своих 30,573 ТБ
бонус:  6,709 ТБ
Доступно 328,023 ТБ

post 30-Июн-2019 22:47 (3 месяца 15 дней назад)

Quote

Алита: Боевой ангел / Alita: Battle Angel
«Ангел падёт, и восстанет воин»




Год выпуска: 2019
Страна: Канада, Аргентина, США
Производство: Twentieth Century Fox, Lightstorm Entertainment, Troublemaker Studios
Жанр: Фантастика, боевик, триллер, мелодрама, приключения
Режиссёр: Роберт Родригес
В ролях: Роза Салазар, Кристоф Вальц, Дженнифер Коннелли, Махершала Али, Эд Скрейн, Джеки Эрл Хейли, Кин Джонсон, Хорхе Лендеборг мл., Лана Кондор, Идара Виктор
Перевод: Профессиональный многоголосый | [СВ Студия]
Субтитры: Английские (полные)
Реклама: Отсутствует

Описание: Действие фильма происходит через 300 лет после Великой войны в XXVI веке. Доктор Идо находит останки женщины-киборга. После починки киборг ничего не помнит, но обнаруживает, что в состоянии пользоваться боевыми приемами киборгов. Начинаются поиски утерянных воспоминаний.



Качество: WEB-DLRip-AVC | |
Продолжительность: 02:01:47

Формат: MKV
Видео кодек: MPEG-4 AVC
Аудио кодек: AC3
Видео: 1024x576 (16:9), 23,976 fps, x264 ~2 133 kbps avg, 0.151 bit/pixel
Аудио #1: 48 kHz, AC3 Dolby Digital, 2 (L,R) ch, ~192.00 kbps avg | RUS (СВ Студия)
Аудио #2: 48 kHz, AC3 Dolby Digital, 2 (L,R) ch, ~192.00 kbps avg | ENG
Дата премьеры (мир): 16 марта 2019
Дата премьеры (РФ): 4 апреля 2019, «Централ Партнершип»
Цифровой релиз: 4 июля 2019, «Paramount»
Общее
Уникальный идентификатор : 176413210379792496826194577010033542133 (0x84B7F2CD5492E5C341D1B36BFB29C3F5)
Полное имя : F:OlLanDGroupAlita Battle Angel.2019.WEB-DLRip(AVC).OlLanDGroup.mkv
Формат : Matroska
Версия формата : Version 4 / Version 2
Размер файла : 2,14 Гбайт
Продолжительность : 2 ч. 1 м.
Общий поток : 2517 Кбит/сек
Название фильма : Alita Battle Angel.2019 #TorpedoUK#
Дата кодирования : UTC 2019-06-30 02:19:30 / UTC 2019-06-27T00:27:22Z
Программа кодирования : mkvmerge v29.0.0 ('Like It Or Not') 64-bit
Библиотека кодирования : libebml v1.3.6 + libmatroska v1.4.9 / Lavf55.12.0

Видео
Идентификатор : 1
Формат : AVC
Формат/Информация : Advanced Video Codec
Профиль формата : High@L4.1
Параметр CABAC формата : Да
Параметр ReFrames формата : 10 кадров
Идентификатор кодека : V_MPEG4/ISO/AVC
Продолжительность : 2 ч. 1 м.
Битрейт : 2133 Кбит/сек
Ширина : 1024 пикселя
Высота : 576 пикселей
Соотношение сторон : 16:9
Режим частоты кадров : Постоянный
Частота кадров : 23,976 (24000/1001) кадра/сек
Цветовое пространство : YUV
Субдискретизация насыщенности : 4:2:0
Битовая глубина : 8 бит
Тип развёртки : Прогрессивная
Бит/(Пиксели*Кадры) : 0.151
Размер потока : 1,77 Гбайт (83%)
Библиотека кодирования : x264 core 146 r2538 121396c
Настройки программы : cabac=1 / ref=10 / deblock=1:-3:-3 / analyse=0x3:0x113 / me=umh / subme=11 / psy=1 / psy_rd=0.98:0.04 / mixed_ref=1 / me_range=48 / chroma_me=1 / trellis=2 / 8x8dct=1 / cqm=0 / deadzone=21,11 / fast_pskip=1 / chroma_qp_offset=-3 / threads=6 / lookahead_threads=1 / sliced_threads=0 / nr=0 / decimate=1 / interlaced=0 / bluray_compat=0 / constrained_intra=0 / bframes=11 / b_pyramid=2 / b_adapt=2 / b_bias=0 / direct=3 / weightb=1 / open_gop=0 / weightp=2 / keyint=240 / keyint_min=23 / scenecut=40 / intra_refresh=0 / rc_lookahead=40 / rc=2pass / mbtree=0 / bitrate=2133 / ratetol=1.0 / qcomp=0.60 / qpmin=0 / qpmax=69 / qpstep=4 / cplxblur=20.0 / qblur=0.5 / vbv_maxrate=50000 / vbv_bufsize=62500 / nal_hrd=none / filler=0 / ip_ratio=1.40 / pb_ratio=1.30 / aq=1:1.00
Язык : English
Default : Да
Forced : Нет
Statistics Tags Issue : mkvmerge v29.0.0 ('Like It Or Not') 64-bit 2019-06-30 02:19:30 / mkvmerge v29.0.0 ('Like It Or Not') 64-bit 2019-06-30 02:19:30 / UTC 2019-06-27T00:27:22Z
FromStats_BitRate : 2131457
FromStats_Duration : 02:01:47.300000000
FromStats_FrameCount : 175200
FromStats_StreamSize : 1946900362

Аудио #1
Идентификатор : 2
Формат : AC-3
Формат/Информация : Audio Coding 3
Расширение режима : CM (complete main)
Параметр Endianness формата : Big
Идентификатор кодека : A_AC3
Продолжительность : 2 ч. 1 м.
Вид битрейта : Постоянный
Битрейт : 192 Кбит/сек
Каналы : 2 канала
Расположение каналов : Front: L R
Частота : 48,0 КГц
Частота кадров : 31,250 кадров/сек (1536 spf)
Битовая глубина : 16 бит
Метод сжатия : С потерями
Размер потока : 167 Мбайт (8%)
Заголовок : MVO [СВ Студия]
Язык : Russian
Default : Да
Forced : Нет
Statistics Tags Issue : mkvmerge v29.0.0 ('Like It Or Not') 64-bit 2019-06-30 02:19:30 / mkvmerge v29.0.0 ('Like It Or Not') 64-bit 2019-06-30 02:19:30 / UTC 2019-06-27T00:27:22Z
FromStats_BitRate : 192000
FromStats_Duration : 02:01:47.488000000
FromStats_FrameCount : 228359
FromStats_StreamSize : 175379712

Аудио #2
Идентификатор : 3
Формат : AC-3
Формат/Информация : Audio Coding 3
Расширение режима : CM (complete main)
Параметр Endianness формата : Big
Идентификатор кодека : A_AC3
Продолжительность : 2 ч. 1 м.
Вид битрейта : Постоянный
Битрейт : 192 Кбит/сек
Каналы : 2 канала
Расположение каналов : Front: L R
Частота : 48,0 КГц
Частота кадров : 31,250 кадров/сек (1536 spf)
Битовая глубина : 16 бит
Метод сжатия : С потерями
Размер потока : 167 Мбайт (8%)
Заголовок : [Original]
Язык : English
Default : Нет
Forced : Нет
Statistics Tags Issue : mkvmerge v29.0.0 ('Like It Or Not') 64-bit 2019-06-30 02:19:30 / mkvmerge v29.0.0 ('Like It Or Not') 64-bit 2019-06-30 02:19:30 / UTC 2019-06-27T00:27:22Z
FromStats_BitRate : 192000
FromStats_Duration : 02:01:47.424000000
FromStats_FrameCount : 228357
FromStats_StreamSize : 175378176

Текст
Идентификатор : 4
Формат : UTF-8
Идентификатор кодека : S_TEXT/UTF8
Идентификатор кодека/Информация : UTF-8 Plain Text
Заголовок : Full
Язык : English
Default : Нет
Forced : Нет
Statistics Tags Issue : mkvmerge v29.0.0 ('Like It Or Not') 64-bit 2019-06-30 02:19:30 / mkvmerge v29.0.0 ('Like It Or Not') 64-bit 2019-06-30 02:19:30 / UTC 2019-06-27T00:27:22Z
FromStats_BitRate : 41
FromStats_Duration : 01:55:09.836000000
FromStats_FrameCount : 1347
FromStats_StreamSize : 35706
Вне форума Profile PM

PIONER

Сид-бонус: 222694

 10 МБ/с   10 МБ/с

Стаж: 11 лет

Сообщений: 1276

Откуда: Кохма

Награды: Нет

Рейтинг: 205,47
Скачано:  491,16 ГБ
Отдано:  61,269 ТБ
на своих 30,573 ТБ
бонус:  6,709 ТБ
Доступно 328,023 ТБ

post 30-Июн-2019 23:12 (спустя 25 минут, 3 месяца 15 дней назад)

Quote

Мне понравилось!

________________________________
Вне форума Profile PM

Alexsss

Стаж: 11 лет

Сообщений: 108

Откуда: Шуя

Награды: Нет

Рейтинг: 10,33
Скачано:  659,68 ГБ
Отдано:  4,007 ТБ
на своих 1,994 ТБ
бонус:  667,42 ГБ
Доступно 21,531 ТБ

post 04-Июл-2019 23:03 (спустя 3 дня, 3 месяца 11 дней назад)

Quote

Хороший фильм!
Вне форума Profile PM
Вверх
Показать сообщения:    
Ответить на тему Вверх
Список форумов ivbox.me » Архив » Временная папка » Алита: Боевой ангел / Alita: Battle Angel (Роберт Родригес) [2019 Фантастика, боевик, триллер, мелодрама, приключения WEB-DLRip-AV​C] MVO | СВ Студия

Текущее время: 16-Окт 10:17

Часовой пояс: GMT + 3


Вы не можете начинать темы
Вы не можете отвечать на сообщения
Вы не можете редактировать свои сообщения
Вы не можете удалять свои сообщения
Вы не можете голосовать в опросах
Вы не можете прикреплять файлы к сообщениям
Вы не можете скачивать файлы