Loading...
Error
Фрилич! «КАЧАЙ И РАЗДАВАЙ». Скачанное не засчитывается!
Регистрация
Имя:     Пароль:  
Забыли пароль?

[Progressive Power Metal] Theocracy - Collection (2003-2011), FLAC (image + .cue)

Список форумов ivbox.me » Музыка Lossless » Hard and Heavy » [Progressive Power Metal] Theocracy - Collection (2003-2011), FLAC (image + .cue)
Ответить на тему Вниз
Статистика раздачи
Скачали: [ 1 ]
 
     
Сделать раздачу рекомендованной:  Подтвердите 
 
Автор Сообщение

Доброславъ

Сид-бонус: 233483

 5 МБ/с   5 МБ/с

Стаж: 11 лет

Сообщений: 2349

Откуда: АССР НП, Саратов

Награды: Нет

Рейтинг: 236,28
Скачано:  603,68 ГБ
Отдано:  82,137 ТБ
на своих 45,551 ТБ
бонус:  11,607 ТБ
Доступно 463,727 ТБ

post 24-Ноя-2019 14:45 (11 дней назад)

Quote

Theocracy – Collection (2003-2011)


Жанр: Progressive Power Metal
Страна-производитель дисков: Germany/Sweden/Japan
Годы издания: 2003-2011
Издатель (лейбл): Ulterium Records/Ulterium Records/King Records
Страна: USA
Аудиокодек: FLAC (*.flac)
Тип рипа: image+.cue
Продолжительность: 03:33:07

Трэклист:
Продолжительность: 01:08:29

01. Theocracy - 01 Prelude 01:36
02. Theocracy - 02 Ichthus 04:40
03. Theocracy - 03 The Serpents Kiss 11:56
04. Theocracy - 04 Mountain 04:48
05. Theocracy - 05 Theocracy 06:01
06. Theocracy - 06 The Healing Hand 11:36
07. Theocracy - 07 Sinner 06:09
08. Theocracy - 08 New Jerusalem 05:10
09. Theocracy - 09 The Victory Dance 05:02
10. Theocracy - 10 Twist of Fate 11:31

Состав группы:
Matt Smith - lead & choir vocals, guitars, bass, keys & orchestration
Shawn Benson - drums
Exact Audio Copy V1.0 beta 3 from 29. August 2011

EAC extraction logfile from 21. March 2014, 21:53

Theocracy / Theocracy (Remix 2013)

Used drive  : SlimtypeDVD A  DS8A5SH   Adapter: 0  ID: 1

Read mode               : Secure
Utilize accurate stream : Yes
Defeat audio cache      : Yes
Make use of C2 pointers : No

Read offset correction                      : 6
Overread into Lead-In and Lead-Out          : No
Fill up missing offset samples with silence : Yes
Delete leading and trailing silent blocks   : No
Null samples used in CRC calculations       : Yes
Used interface                              : Native Win32 interface for Win NT & 2000

Used output format              : User Defined Encoder
Selected bitrate                : 320 kBit/s
Quality                         : High
Add ID3 tag                     : No
Command line compressor         : C:\Program Files (x86)\Exact Audio Copy\Flac\flac.exe
Additional command line options : -V -8 -T "Date=%year%" -T "Genre=%genre%" %source%

TOC of the extracted CD

     Track |   Start  |  Length  | Start sector | End sector
    ---------------------------------------------------------
        1  |  0:00.00 |  1:36.13 |         0    |     7212
        2  |  1:36.13 |  4:40.04 |      7213    |    28216
        3  |  6:16.17 | 11:56.23 |     28217    |    81939
        4  | 18:12.40 |  4:48.31 |     81940    |   103570
        5  | 23:00.71 |  6:01.27 |    103571    |   130672
        6  | 29:02.23 | 11:35.69 |    130673    |   182866
        7  | 40:38.17 |  6:08.59 |    182867    |   210525
        8  | 46:47.01 |  5:10.23 |    210526    |   233798
        9  | 51:57.24 |  5:02.19 |    233799    |   256467
       10  | 56:59.43 | 11:31.15 |    256468    |   308307

Range status and errors

Selected range

     Filename D:\My Music\Theocracy - 2003 Theocracy (Remix 2013)\Theocracy - Theocracy (Remix 2013).wav

     Peak level 100.0 %
     Extraction speed 1.9 X
     Range quality 100.0 %
     Test CRC 63F43B11
     Copy CRC 63F43B11
     Copy OK

No errors occurred

AccurateRip summary

Track  1  accurately ripped (confidence 1)  [B8F2AB9F]  (AR v2)
Track  2  accurately ripped (confidence 1)  [FD069137]  (AR v2)
Track  3  accurately ripped (confidence 1)  [41D91ED2]  (AR v2)
Track  4  accurately ripped (confidence 1)  [C9AD0373]  (AR v2)
Track  5  accurately ripped (confidence 1)  [3C9B76DF]  (AR v2)
Track  6  accurately ripped (confidence 1)  [E61728AA]  (AR v2)
Track  7  accurately ripped (confidence 1)  [B9A4E14D]  (AR v2)
Track  8  accurately ripped (confidence 1)  [942D5B1E]  (AR v2)
Track  9  accurately ripped (confidence 1)  [E9E1008D]  (AR v2)
Track 10  accurately ripped (confidence 1)  [59E13086]  (AR v2)

All tracks accurately ripped

End of status report

==== Log checksum 5E8709B9D0CD610178A1017F6972F8D7C348742C0B5B3D2AEA8E71B09561804F ====

Продолжительность: 01:11:29

01. Theocracy - Tower of Ashes 04:44
02. Theocracy - On Eagles' Wings 04:12
03. Theocracy - Laying the Demon to Rest 09:37
04. Theocracy - Bethlehem 05:51
05. Theocracy - Absolution Day 06:47
06. Theocracy - The Writing in the Sand 06:44
07. Theocracy - Martyr 07:39
08. Theocracy - Mirror of Souls 22:29
09. Theocracy - Wages of Sin (bonus track) 03:26

Состав группы:
Matt Smith - lead & choir vocals, guitars, bass, keys & orchestration
Jonathan Hinds - guitars
Shawn Benson - drums
Exact Audio Copy V1.0 beta 3 from 29. August 2011

EAC extraction logfile from 11. March 2012, 22:53

Theocracy / Mirror of Souls

Used drive  : SlimtypeDVD A  DS8A5SH   Adapter: 0  ID: 1

Read mode               : Secure
Utilize accurate stream : Yes
Defeat audio cache      : Yes
Make use of C2 pointers : No

Read offset correction                      : 6
Overread into Lead-In and Lead-Out          : No
Fill up missing offset samples with silence : Yes
Delete leading and trailing silent blocks   : No
Null samples used in CRC calculations       : Yes
Used interface                              : Native Win32 interface for Win NT & 2000

Used output format              : User Defined Encoder
Selected bitrate                : 320 kBit/s
Quality                         : High
Add ID3 tag                     : No
Command line compressor         : C:\Program Files (x86)\Exact Audio Copy\Flac\flac.exe
Additional command line options : -V -8 -T "Date=%year%" -T "Genre=%genre%" %source%

TOC of the extracted CD

     Track |   Start  |  Length  | Start sector | End sector
    ---------------------------------------------------------
        1  |  0:00.00 |  4:44.22 |         0    |    21321
        2  |  4:44.22 |  4:11.46 |     21322    |    40192
        3  |  8:55.68 |  9:37.29 |     40193    |    83496
        4  | 18:33.22 |  5:51.00 |     83497    |   109821
        5  | 24:24.22 |  6:46.54 |    109822    |   140325
        6  | 31:11.01 |  6:43.68 |    140326    |   170618
        7  | 37:54.69 |  7:39.03 |    170619    |   205046
        8  | 45:33.72 | 22:28.69 |    205047    |   306215
        9  | 68:02.66 |  3:26.17 |    306216    |   321682

Range status and errors

Selected range

     Filename D:\My Music\Theocracy - 2008 Mirror Of Souls (Deluxe Edition 2011)\Theocracy - Mirror of Souls.wav

     Peak level 100.0 %
     Extraction speed 4.9 X
     Range quality 99.9 %
     Test CRC 0E2E653A
     Copy CRC 0E2E653A
     Copy OK

No errors occurred

AccurateRip summary

Track  1  not present in database
Track  2  not present in database
Track  3  not present in database
Track  4  not present in database
Track  5  not present in database
Track  6  not present in database
Track  7  not present in database
Track  8  not present in database
Track  9  not present in database

None of the tracks are present in the AccurateRip database

End of status report

==== Log checksum A89283D65A3473C500A2CB4F0BA54A910CE5BC5EDBF1059BB53427EFEB9405C6 ====

Продолжительность: 01:13:09

01. Theocracy - The Master Storyteller 04:10
02. Theocracy - Nailed 06:25
03. Theocracy - Hide In The Fairytale 04:27
04. Theocracy - 30 Pieces Of Silver 05:08
05. Theocracy - The Gift Of Music 07:12
06. Theocracy - Light Of The World 04:29
07. Theocracy - Drown 05:30
08. Theocracy - Altar To The Unknown God 05:44
09. Theocracy - As The World Bleeds 07:57
10. Theocracy - I Am 11:00
11. Theocracy - I'm In A Cage (bonus track) 04:02
12. Theocracy - Martyr (live in the studio) (bonus track) 07:05

Состав группы:
Matt Smith - lead vocals, additional guitars & keyboards
Jonathan Hinds - guitar, piano & keyboards
Val Allen Wood - lead guitar
Jared Oldham - bass guitar
Shawn Benson - drums
Exact Audio Copy V1.0 beta 3 from 29. August 2011

EAC extraction logfile from 3. June 2012, 0:03

Theocracy / As The World Bleeds

Used drive  : SlimtypeDVD A  DS8A5SH   Adapter: 0  ID: 1

Read mode               : Secure
Utilize accurate stream : Yes
Defeat audio cache      : Yes
Make use of C2 pointers : No

Read offset correction                      : 6
Overread into Lead-In and Lead-Out          : No
Fill up missing offset samples with silence : Yes
Delete leading and trailing silent blocks   : No
Null samples used in CRC calculations       : Yes
Used interface                              : Native Win32 interface for Win NT & 2000

Used output format              : User Defined Encoder
Selected bitrate                : 320 kBit/s
Quality                         : High
Add ID3 tag                     : No
Command line compressor         : C:\Program Files (x86)\Exact Audio Copy\Flac\flac.exe
Additional command line options : -V -8 -T "Date=%year%" -T "Genre=%genre%" %source%

TOC of the extracted CD

     Track |   Start  |  Length  | Start sector | End sector
    ---------------------------------------------------------
        1  |  0:00.00 |  4:10.11 |         0    |    18760
        2  |  4:10.11 |  6:25.24 |     18761    |    47659
        3  | 10:35.35 |  4:27.09 |     47660    |    67693
        4  | 15:02.44 |  5:08.19 |     67694    |    90812
        5  | 20:10.63 |  7:12.07 |     90813    |   123219
        6  | 27:22.70 |  4:28.58 |    123220    |   143377
        7  | 31:51.53 |  5:29.48 |    143378    |   168100
        8  | 37:21.26 |  5:44.00 |    168101    |   193900
        9  | 43:05.26 |  7:56.69 |    193901    |   229669
       10  | 51:02.20 | 10:59.68 |    229670    |   279162
       11  | 62:02.13 |  4:02.20 |    279163    |   297332
       12  | 66:04.33 |  7:04.69 |    297333    |   329201

Range status and errors

Selected range

     Filename D:\My Music\Theocracy - 2011 As The World Bleeds (Japanese Edition 2012)\Theocracy - As The World Bleeds.wav

     Peak level 100.0 %
     Extraction speed 5.2 X
     Range quality 99.9 %
     Test CRC 5899217D
     Copy CRC 5899217D
     Copy OK

No errors occurred

AccurateRip summary

Track  1  not present in database
Track  2  not present in database
Track  3  not present in database
Track  4  not present in database
Track  5  not present in database
Track  6  not present in database
Track  7  not present in database
Track  8  not present in database
Track  9  not present in database
Track 10  not present in database
Track 11  not present in database
Track 12  not present in database

None of the tracks are present in the AccurateRip database

End of status report

==== Log checksum D065924BAA163B1A07C53BF78FBF8699756CAC88BEEA255E79FB6D4D73D093CF ====



Оф. сайт группы
Theocracy начал свою жизнь как проект одного музыканта – Мэтта Смита (Matt Smith), который сыграл все партии на дебютном альбоме, вышедшем в конце 2003 года на MetalAges Records. Альбом получил фантастические отзывы и признание по всему миру среди металлистов.
После выхода альбома к проекту присоединились барабанщик Shawn Benson и гитарист Jon Hinds, и в этом составе началась концертная деятельность и работа над новым материалом. На втором альбоме Mirror of Souls, вышедшем на Ulterium Records, музыканты придерживались тех же высоких стандартов написания композиций, что и на дебютном диске. 23-минутный заглавный трек отлично подводит итог всему, что есть у Theocracy. Альбом получил впечатляющие отзывы и доступен как онлайн, так и в магазинах по всему миру.


Скрыт Profile PM
Вверх
Показать сообщения:    
Ответить на тему Вверх
Список форумов ivbox.me » Музыка Lossless » Hard and Heavy » [Progressive Power Metal] Theocracy - Collection (2003-2011), FLAC (image + .cue)

Текущее время: 06-Дек 00:50

Часовой пояс: GMT + 3


Вы не можете начинать темы
Вы не можете отвечать на сообщения
Вы не можете редактировать свои сообщения
Вы не можете удалять свои сообщения
Вы не можете голосовать в опросах
Вы не можете прикреплять файлы к сообщениям
Вы не можете скачивать файлы